>

5.6

iTunes

6.1

MVO

5.7

MVO

1

7.4

1 сезон

6.8

iTunes

7.2

1 сезон

13

6.7

1 сезон

8.3

RePack

30

Deluxe

pack

9.9

Лицензия

ВАЖНО

ИГРА 18+

pack

7.3

RePack

MK11

7.7

RePack

jed

7.8

RePack

fifa19

8.5

RePack

RDR2

RePack

NEED FOR SPEED™ PAYBACK

4 сезон

9 сезон

Бесстыжие 9 сезон

Все сериалы

все сериалы на PB.wtf

RePack

FAR CRY 5

Anonymous, доброй ночи, мы катастрофически не успеваем собрать деньги на оплату серверов, помогите нам пожалуйста 5,10,15р., для нас важна любая помощь . В качестве благодарности мы отключим Вам всю рекламу на сайте (укажите свой ник в строку Ваше имя)!

×
  
Magnet ссылка

Коса / Сезон: 1 / Серии: 1-6 из 12 (Игорь Волошин) [2021, Триллер, детектив, WEBRip] pb.wtf

Коса через торрент pb.wtf

Раздают: 3 [ 4 KB/s ] Качают: 2 [ 0 KB/s ]
Размер: 2.62 GB | Добавлен: 5 д. назад | Торрент скачан:9 раз
Смотреть онлайн Коса | Скачать    Ребята, помогите собрать деньги на оплату серверов!!!

24-08-2021 23:29 Коса Скачать торрент  

Коса
Год выпуска: 2021
Страна: Россия
Выпущено: МТС Медиа, продюсерская компания «Среда»
Жанр: Триллер, детектив
Продолжительность: ~ 00:30:00 серия
Субтитры: отсутствуют

Режиссер: Игорь Волошин



В ролях: Александр Горбатов (II), Линда Лапиньш, Анна Синякина, Виктория Агалакова, Игорь Ветров (II), Игорь Черневич, Василий Михайлов (II), Сергей Сосновский, Илья Кипоренко, Сафия Яруллина, Лиза Медведева, Ася Дубровская, Евгений Буслаков, Олег Васильков, Яна Сексте, Александр Чередник, Илья Исаев, Евгений Серзин, Ольга Макеева, Залим Мирзоев, Андрей Бронников (II), Дмитрий Богдан, Руслан Риманас, Ольга Сирина, Василина Маковцева, Павел Любимцев, Георгий Пицхелаури, Сергей Набирухин, Анатолий Смиранин (III)

Описание: На Куршской косе находят тело девочки, вспоротое от шеи до лобка, с белой лилией в руке. За дело берутся следователь Ева Кайдас и журналист Роман Рахманов, каждый из которых тяготится своей непережитой травмой. Так, два раненых существа, чувствующих непреодолимое, магнетическое притяжение друг к другу, проходят через страшный и мучительный опыт борьбы с самими собой и изучают непостижимую философию маньяка-эстета.

Качество: WEBRip
Формат: AVI

Видео: 720x304 (2.37:1), 25 fps, XviD ~1650 kbps avg, 0.301 bit/pixel
Аудио: 48.0 kHz, AC3 Dolby Digital, 2/0 (L,R) ch, ~ 192 kbps
скриншот  скриншот  скриншот  скриншот  

General
Complete name : D:\Kosa.2021.WEB-DLRip.25Kuzmich\Kosa.e01.WEB-DLRip.25Kuzmich.avi
Format : AVI
Format/Info : Audio Video Interleave
File size : 401 MiB
Duration : 30 min 15 s
Overall bit rate : 1 852 kb/s
Writing application : VirtualDubMod 1.5.10.3 | www.virtualdub-fr.org || (build 2550/release)
Writing library : VirtualDubMod build 2550/release

Video
ID : 0
Format : MPEG-4 Visual
Format profile : Advanced Simple@L5
Format settings : BVOP1
Format settings, BVOP : 1
Format settings, QPel : No
Format settings, GMC : No warppoints
Format settings, Matrix : Default (MPEG)
Codec ID : XVID
Codec ID/Hint : XviD
Duration : 30 min 15 s
Bit rate : 1 650 kb/s
Width : 720 pixels
Height : 304 pixels
Display aspect ratio : 2.35:1
Frame rate : 25.000 FPS
Color space : YUV
Chroma subsampling : 4:2:0
Bit depth : 8 bits
Scan type : Progressive
Compression mode : Lossy
Bits/(Pixel*Frame) : 0.301
Stream size : 357 MiB (89%)
Writing library : XviD 73

Audio
ID : 1
Format : AC-3
Format/Info : Audio Coding 3
Codec ID : 2000
Duration : 30 min 15 s
Bit rate mode : Constant
Bit rate : 192 kb/s
Channel(s) : 2 channels
Channel positions : Front: L R
Sampling rate : 48.0 kHz
Frame rate : 31.250 FPS (1536 SPF)
Bit depth : 16 bits
Compression mode : Lossy
Stream size : 41.6 MiB (10%)
Alignment : Split accross interleaves
Interleave, duration : 40 ms (1.00 video frame)
Interleave, preload duratio : 500 ms
Service kind : Complete Main

Когда раздача ведётся путём добавления новых серий, при каждом добавлении создётся новый торрент. Чтобы начать докачку новой серии, пользователям необходимо сделать следующее:
(1) остановить скачивание,
(2) удалить старый торрент у себя из клиента (старые серии удалять не надо),
(3) скачать новый торрент и запустить его у себя в клиенте вместо старого, при этом указать клиенту путь в старую папку, куда и должно происходить скачивание новых серий.
Ваш клиент при этом должен произвести хеширование (проверку) старой папки (если не производит сам - помогите ему сделать это), и будет докачивать только те серии, которых у вас ещё нет. Старые серии при этом не удаляются, а продолжают раздаваться!
Eсли вы уже удалили старые серии, то предотвратить повторную закачку старых серий можно, отжав галочку в соответсвующих местах при запуске нового торрента. По возможности, желательно не удалять старые серии как можно дольше, чтобы релизёр не столько продолжал раздавать старые серии, а смог сконцентрироваться на новых.

pb.wtf



Скачать Коса через торрент https://i115.fastpic.org/big/2021/0825/d6/6df92e96a593a95f2c1a1d1c589f82d6.jpg Скачать, смотреть онлайн Коса бесплантно в хорошем качестве Описание: На Куршской косе находят тело девочки, вспоротое от шеи до лобка, с белой лилией в руке. За дело берутся следователь Ева Кайдас и ... 10 10 6
Торрент: Зарегистрирован [2021-09-14 23:53] · скачан: 9 раз
Статус: √ проверено
Размер: 2.62 GB
Как cкачать? Как скачать Коса через торрент | UTorrent

% Раздел Тема Автор DL S | L
Наши сериалы [ 2.48 GB ] Коса / Сезон: 1 / Серии: 1-6 из 12 [2021 WEBRip-AVC] bober100 Скачать
4 | 2
Наши сериалы [ 5.81 GB ] Коса / Сезон: 1 / Серии: 1-6 из 12 [2021 WEBRip 720p] bober100 Скачать
4 | 2
Наши сериалы [ 8.97 GB ] Коса / Сезон: 1 / Серии: 1-6 из 12 [2021 WEBRip 1080p] bober100 Скачать
5 | 2


Последний раз редактировалось: bober100 (2021-09-14 23:52), всего редактировалось 2 раз(а)

28-11-2019 20:33  

Отключить всю рекламу на сайте

25-08-2021 13:56 Коса Скачать торрент  

по серии в неделю как обычно?pb.wtf



    Дорогой пользователь! Огромная просьба, поблагодарите релизера, оцените раздачу и оставьте свои комментарий, если Вы скачали Коса через торрент бесплатно!
    Комментировать посты могут только пользователи прошедшие не сложную регистрацию
    Показать сообщения:    

    Коса через торрент
    Скачать бесплатно Коса
    Коса скачать торрент
    Коса смотреть онлайн
    Cкачать фильм Коса бесплатно
    Коса скачать торрент в хорошем качестве
    Коса смотреть онлайн бесплатно в хорошем качестве


    Вы не можете начинать темы
    Вы не можете отвечать на сообщения
    Вы не можете редактировать свои сообщения
    Вы не можете удалять свои сообщения
    Вы не можете голосовать в опросах
    Вы не можете прикреплять файлы к сообщениям
    Вы можете скачивать файлы