Достать ножи: Стеклянная луковица

MVO

Добыча

Дубляж

Уэнсдэй

1 сезон

Тор

Дубляж

13 клиническая

1 сезон

Жестокая ночь

MVO

Одни из нас

1 сезон

Deluxe

pack

Рекомендуем

30

Пиратка

ВАЖНО

ВАЖНО

Ghostwire

Пиратка

jed

RePack

nioh2

RePack

RDR2

RePack

NEED FOR SPEED™ PAYBACK

RePack

скачать торрент

Кинопоиск HD

Острые козырьки 6 сезон

6 сезон

FAR CRY 6

RePack

скачать торрент

Лицензия

скачать торрент

MVO

1

1 сезон

скачать торрент

1 сезон

скачать торрент

Лицензия

  

Ходячие мертвецы / The Walking Dead / Сезон: 11 / Серии: 1-16 из 24 (Грег Никотеро, Майкл Е. Сатраземис, Дэвид Бойд) [2021, Ужасы, триллер, драма, WEB-DLRip] MVO [TVShows]

Ходячие мертвецы через торрент pb.wtf

Размер: 10.04 GB | Добавлен: 8 мес. назад | Торрент скачан:14 раз
Смотреть онлайн | Скачать | Поддержите нас   

25-08-2021 22:54 Ходячие мертвецы Скачать торрент  

Ходячие мертвецы | The Walking Dead
Год выпуска: 2021
Страна: США
Студия: AMC Studios, American Movie Classics (AMC), Circle of Confusion, Darkwoods Productions, Idiot Box Productions, Valhalla Motion Pictures
Жанр: Ужасы, триллер, драма
Продолжительность: ~00:45:00
Перевод: Профессиональный (многоголосый) | TVShows
Субтитры: отсутствуют

Режиссёр: Грег Никотеро, Майкл Е. Сатраземис, Дэвид Бойд

rating

В ролях: Норман Ридус, Мелисса Сюзанн МакБрайд, Лорен Кохэн, Джош Макдермитт, Кристиан Серратос, Данай Гурира, Сет Гиллиам, Эндрю Линкольн, Росс Маркванд, Чендлер Риггз и другие.
и др.

Описание: Сериал рассказывает историю жизни семьи шерифа после того, как «зомби» - эпидемия апокалиптических масштабов захлестнула земной шар. Шериф Рик Граймс путешествует со своей семьей и небольшой группой выживших в поисках безопасного места для жизни. Но постоянный страх смерти каждый день приносит тяжелые потери, заставляя героев почувствовать глубины человеческой жестокости. Рик пытается спасти свою семью, и открывает для себя, что всепоглощающий страх тех, кто выжил, может быть опаснее бессмысленных мертвецов, бродящих по земле.

Качество: WEB-DLRip
Формат: AVI

Видео: 720x400 (1.80:1), 24 fps, XviD build 69 ~1498 kbps avg, 0.22 bit/pixel
Аудио Rus: 48.0 kHz, AC3 Dolby Digital, 2/0 (L,R) ch, ~ 192 kbps
скриншот  скриншот  скриншот  скриншот  скриншот  

Общее
Полное имя : D:\The Walking Dead.s11.2021.TVShows\01. The Walking Dead.s11.2021.TVShows.avi
Формат : AVI
Формат/Информация : Audio Video Interleave
Размер файла : 726 Мбайт
Продолжительность : 56 м. 23 с.
Общий поток : 1 801 Кбит/сек
Программа кодирования : VirtualDubMod 1.5.10.3 | www.virtualdub-fr.org || (build 2550/release)
Библиотека кодирования : VirtualDubMod build 2550/release

Видео
Идентификатор : 0
Формат : MPEG-4 Visual
Профиль формата : Advanced [email protected]
Настройки формата : BVOP2 / Custom Matrix
Параметр BVOP формата : 2
Параметр QPel формата : Нет
Параметр GMC формата : Без точки перехода
Параметр матрицы формата : Выборочная
Идентификатор кодека : XVID
Идентификатор кодека/Подсказка : XviD
Продолжительность : 56 м. 23 с.
Битрейт : 1 529 Кбит/сек
Ширина : 720 пикселей
Высота : 400 пикселей
Соотношение сторон : 16:9
Частота кадров : 24,000 кадра/сек
Цветовое пространство : YUV
Субдискретизация насыщенности : 4:2:0
Битовая глубина : 8 бит
Тип развёртки : Прогрессивная
Метод сжатия : С потерями
Бит/(Пиксели*Кадры) : 0.221
Размер потока : 617 Мбайт (85%)
Библиотека кодирования : XviD 73

Аудио
Идентификатор : 1
Формат : AC-3
Формат/Информация : Audio Coding 3
Коммерческое название : Dolby Digital
Идентификатор кодека : 2000
Продолжительность : 56 м. 23 с.
Вид битрейта : Постоянный
Битрейт : 192 Кбит/сек
Каналы : 2 канала
Channel layout : L R
Частота : 48,0 КГц
Частота кадров : 31,250 кадров/сек (1536 SPF)
Метод сжатия : С потерями
Размер потока : 77,4 Мбайт (11%)
Выравнивание : Разделение по промежуткам
Service kind : Complete Main

Когда раздача ведётся путём добавления новых серий, при каждом добавлении создётся новый торрент. Чтобы начать докачку новой серии, пользователям необходимо сделать следующее:
(1) остановить скачивание,
(2) удалить старый торрент у себя из клиента (старые серии удалять не надо),
(3) скачать новый торрент и запустить его у себя в клиенте вместо старого, при этом указать клиенту путь в старую папку, куда и должно происходить скачивание новых серий.
Ваш клиент при этом должен произвести хеширование (проверку) старой папки (если не производит сам - помогите ему сделать это), и будет докачивать только те серии, которых у вас ещё нет. Старые серии при этом не удаляются, а продолжают раздаваться!
Eсли вы уже удалили старые серии, то предотвратить повторную закачку старых серий можно, отжав галочку в соответсвующих местах при запуске нового торрента. По возможности, желательно не удалять старые серии как можно дольше, чтобы релизёр не столько продолжал раздавать старые серии, а смог сконцентрироваться на новых.




Скачать Ходячие мертвецы через торрент https://i115.fastpic.org/big/2021/0826/8f/0c7fed0b802f90d44ba060e0d89e1f8f.jpg Скачать, смотреть онлайн Ходячие мертвецы бесплантно в хорошем качестве Описание: Сериал рассказывает историю жизни семьи шерифа после того, как «зомби» - эпидемия апокалиптических масштабов захлестнула земной ... 10 10 3
Info! Золотая раздача, скачанное не засчитывается.
Торрент: Зарегистрирован [2022-05-04 04:30] · скачан: 14 раз
Статус: √ проверено
Размер: 10.04 GB
Как cкачать? Как скачать Ходячие мертвецы через торрент | UTorrent

% Раздел Тема Автор DL S | L
T Зарубежные сериалы [ 65.39 GB ] Ходячие мертвецы / The Walking Dead / Сезон: 11 / Серии: 1-24 из 24 | | 1080p bober100 Скачать
1 | 0
Зарубежные сериалы [ 115.52 GB ] Ходячие мертвецы / The Walking Dead / Сезон: 11 / Серии: 1-24 из 24 | LostFilm | 1080p bober100 Скачать
3 | 0
Зарубежные сериалы [ 18.76 GB ] Ходячие мертвецы / The Walking Dead / Сезон: 11 / Серии: 1-24 из 24 | LostFilm | DLRip bober100 Скачать
3 | 3

28-11-2019 20:33  


Отключить вcю реклaмy на сайте, в т.ч. и в плеере онлайн просмотра!

    Дорогой пользователь! Огромная просьба, поблагодарите релизера, оцените раздачу и оставьте свои комментарий, если Вы скачали Ходячие мертвецы через торрент бесплатно!!
    Комментировать посты могут только пользователи прошедшие не сложную регистрацию
    Показать сообщения:    


    Ходячие мертвецы через торрент
    Скачать бесплатно Ходячие мертвецы
    Ходячие мертвецы скачать торрент
    Ходячие мертвецы смотреть онлайн
    Cкачать фильм Ходячие мертвецы бесплатно
    Ходячие мертвецы скачать торрент в хорошем качестве
    Ходячие мертвецы смотреть онлайн бесплатно в хорошем качестве
    Вы не можете начинать темы
    Вы не можете отвечать на сообщения
    Вы не можете редактировать свои сообщения
    Вы не можете удалять свои сообщения
    Вы не можете голосовать в опросах
    Вы не можете прикреплять файлы к сообщениям
    Вы можете скачивать файлы
    Ходячие мертвецы / The Walking Dead / Сезон: 11 / Серии: 1-16 из 24 [2021, Ужасы, триллер, драма, WEB-DLRip] MVO [TVShows] смотреть онлайн, скачать торрент picoco.icu