>

5.6

iTunes

6.1

MVO

5.7

MVO

1

7.4

1 сезон

6.8

iTunes

7.2

1 сезон

13

6.7

1 сезон

8.3

RePack

30

Deluxe

pack

9.9

Лицензия

ВАЖНО

ИГРА 18+

pack

7.3

RePack

MK11

7.7

RePack

jed

7.8

RePack

fifa19

8.5

RePack

RDR2

RePack

NEED FOR SPEED™ PAYBACK

4 сезон

9 сезон

Бесстыжие 9 сезон

Все сериалы

все сериалы на PB.wtf

RePack

FAR CRY 5

Anonymous, добрый вечер, мы катастрофически не успеваем собрать деньги на оплату серверов, помогите нам пожалуйста 5,10,15р., для нас важна любая помощь . В качестве благодарности мы отключим Вам всю рекламу на сайте (укажите свой ник в строку Ваше имя)!

×
  
Magnet ссылка

Ходячие мертвецы / The Walking Dead / Сезон: 11 / Серии: 1-5 из 24 (Грег Никотеро, Майкл Е. Сатраземис, Дэвид Бойд) [2021, Ужасы, триллер, драма, WEB-DL 1080p] MVO [LostFilm] pb.wtf

Ходячие мертвецы через торрент pb.wtf

Раздают: 2 [ 28 KB/s ] Качают: 2 [ 0 KB/s ]
Размер: 24.81 GB | Добавлен: 5 д. назад | Торрент скачан:11 раз
Смотреть онлайн Ходячие мертвецы | Скачать    Ребята, помогите собрать деньги на оплату серверов!!!

25-08-2021 23:38 Ходячие мертвецы Скачать торрент  

Ходячие мертвецы | The Walking Dead
Год выпуска: 2021
Страна: США
Студия: AMC Studios, American Movie Classics (AMC), Circle of Confusion, Darkwoods Productions, Idiot Box Productions, Valhalla Motion Pictures
Жанр: Ужасы, триллер, драма
Продолжительность: ~00:45:00
Перевод: Профессиональный (многоголосый) | LostFilm
Субтитры: Русские (Forced, Full), английские

Режиссёр: Грег Никотеро, Майкл Е. Сатраземис, Дэвид Бойд

rating

В ролях: Норман Ридус, Мелисса Сюзанн МакБрайд, Лорен Кохэн, Джош Макдермитт, Кристиан Серратос, Данай Гурира, Сет Гиллиам, Эндрю Линкольн, Росс Маркванд, Чендлер Риггз и другие.
и др.

Описание: Сериал рассказывает историю жизни семьи шерифа после того, как «зомби» - эпидемия апокалиптических масштабов захлестнула земной шар. Шериф Рик Граймс путешествует со своей семьей и небольшой группой выживших в поисках безопасного места для жизни. Но постоянный страх смерти каждый день приносит тяжелые потери, заставляя героев почувствовать глубины человеческой жестокости. Рик пытается спасти свою семью, и открывает для себя, что всепоглощающий страх тех, кто выжил, может быть опаснее бессмысленных мертвецов, бродящих по земле.

Качество: WEB-DL 1080p
Формат: MKV

Видео: MPEG-4 AVC, ~ 12.5 Мбит/с, 1920x1080, 24.000 Кадр/с
Аудио №1: AC3, 48 kHz, 2 ch, 384 kbps
Аудио №2: E-AC3, 48 kHz, 6 ch, 640 kbps
скриншот  скриншот  скриншот  скриншот  

Общее
Уникальный идентификатор : 29459511383034994431305175771425224298 (0x1629B20D1263C737BAB1BF82BE77366A)
Полное имя : D:\The.Walking.Dead.S11.1080p.WEB-DL.H.264.R\The.Walking.Dead.S11E01.Acheron.Part.I.1080p.WEB-DL.H.264.R.mkv
Формат : Matroska
Версия формата : Version 4
Размер файла : 5,22 Гбайт
Продолжительность : 56 м. 13 с.
Общий поток : 13,3 Мбит/сек
Дата кодирования : UTC 2021-08-25 16:43:07
Программа кодирования : mkvmerge v60.0.0 ('Are We Copies?') 64-bit
Библиотека кодирования : libebml v1.4.2 + libmatroska v1.6.4

Видео
Идентификатор : 1
Формат : AVC
Формат/Информация : Advanced Video Codec
Профиль формата : High@L4
Настройки формата : CABAC / 4 Ref Frames
Параметр CABAC формата : Да
Параметр RefFrames формата : 4 кадра
Идентификатор кодека : V_MPEG4/ISO/AVC
Продолжительность : 56 м. 13 с.
Битрейт : 12,3 Мбит/сек
Ширина : 1 920 пикселей
Высота : 1 080 пикселей
Соотношение сторон : 16:9
Режим частоты кадров : Постоянный
Частота кадров : 24,000 кадра/сек
Цветовое пространство : YUV
Субдискретизация насыщенности : 4:2:0
Битовая глубина : 8 бит
Тип развёртки : Прогрессивная
Бит/(Пиксели*Кадры) : 0.241
Размер потока : 4,72 Гбайт (90%)
Default : Да
Forced : Нет
Цветовой диапазон : Limited
Основные цвета : BT.709
Характеристики трансфера : BT.709
Коэффициенты матрицы : BT.709

Аудио #1
Идентификатор : 2
Формат : AC-3
Формат/Информация : Audio Coding 3
Коммерческое название : Dolby Digital
Идентификатор кодека : A_AC3
Продолжительность : 56 м. 13 с.
Вид битрейта : Постоянный
Битрейт : 384 Кбит/сек
Каналы : 2 канала
Channel layout : L R
Частота : 48,0 КГц
Частота кадров : 31,250 кадров/сек (1536 SPF)
Метод сжатия : С потерями
Размер потока : 154 Мбайт (3%)
Заголовок : LostFilm
Язык : Russian
Service kind : Complete Main
Default : Да
Forced : Нет

Аудио #2
Идентификатор : 3
Формат : E-AC-3
Формат/Информация : Enhanced AC-3
Коммерческое название : Dolby Digital Plus
Идентификатор кодека : A_EAC3
Продолжительность : 56 м. 13 с.
Вид битрейта : Постоянный
Битрейт : 640 Кбит/сек
Каналы : 6 каналов
Channel layout : L R C LFE Ls Rs
Частота : 48,0 КГц
Частота кадров : 31,250 кадров/сек (1536 SPF)
Метод сжатия : С потерями
Задержка видео : 16 мс.
Размер потока : 257 Мбайт (5%)
Заголовок : English
Язык : English
Service kind : Complete Main
Default : Нет
Forced : Нет

Текст #1
Идентификатор : 4
Формат : UTF-8
Идентификатор кодека : S_TEXT/UTF8
Идентификатор кодека/Информация : UTF-8 Plain Text
Заголовок : Forced
Язык : Russian
Default : Да
Forced : Нет

Текст #2
Идентификатор : 5
Формат : UTF-8
Идентификатор кодека : S_TEXT/UTF8
Идентификатор кодека/Информация : UTF-8 Plain Text
Язык : Russian
Default : Нет
Forced : Нет

Текст #3
Идентификатор : 6
Формат : UTF-8
Идентификатор кодека : S_TEXT/UTF8
Идентификатор кодека/Информация : UTF-8 Plain Text
Заголовок : English
Язык : English
Default : Нет
Forced : Нет

Когда раздача ведётся путём добавления новых серий, при каждом добавлении создётся новый торрент. Чтобы начать докачку новой серии, пользователям необходимо сделать следующее:
(1) остановить скачивание,
(2) удалить старый торрент у себя из клиента (старые серии удалять не надо),
(3) скачать новый торрент и запустить его у себя в клиенте вместо старого, при этом указать клиенту путь в старую папку, куда и должно происходить скачивание новых серий.
Ваш клиент при этом должен произвести хеширование (проверку) старой папки (если не производит сам - помогите ему сделать это), и будет докачивать только те серии, которых у вас ещё нет. Старые серии при этом не удаляются, а продолжают раздаваться!
Eсли вы уже удалили старые серии, то предотвратить повторную закачку старых серий можно, отжав галочку в соответсвующих местах при запуске нового торрента. По возможности, желательно не удалять старые серии как можно дольше, чтобы релизёр не столько продолжал раздавать старые серии, а смог сконцентрироваться на новых.

pb.wtf



Скачать Ходячие мертвецы через торрент https://i115.fastpic.org/big/2021/0815/42/d396289758ec4f87d73a2ac5b9a06542.jpg Скачать, смотреть онлайн Ходячие мертвецы бесплантно в хорошем качестве Описание: Сериал рассказывает историю жизни семьи шерифа после того, как «зомби» - эпидемия апокалиптических масштабов захлестнула земной ... 10 10 3
Торрент: Зарегистрирован [2021-09-15 02:18] · скачан: 11 раз
Статус: √ проверено
Размер: 24.81 GB
Как cкачать? Как скачать Ходячие мертвецы через торрент | UTorrent

28-11-2019 20:33  

Отключить всю рекламу на сайте

    Дорогой пользователь! Огромная просьба, поблагодарите релизера, оцените раздачу и оставьте свои комментарий, если Вы скачали Ходячие мертвецы через торрент бесплатно!
    Комментировать посты могут только пользователи прошедшие не сложную регистрацию
    Показать сообщения:    

    Ходячие мертвецы через торрент
    Скачать бесплатно Ходячие мертвецы
    Ходячие мертвецы скачать торрент
    Ходячие мертвецы смотреть онлайн
    Cкачать фильм Ходячие мертвецы бесплатно
    Ходячие мертвецы скачать торрент в хорошем качестве
    Ходячие мертвецы смотреть онлайн бесплатно в хорошем качестве


    Вы не можете начинать темы
    Вы не можете отвечать на сообщения
    Вы не можете редактировать свои сообщения
    Вы не можете удалять свои сообщения
    Вы не можете голосовать в опросах
    Вы не можете прикреплять файлы к сообщениям
    Вы можете скачивать файлы