>

5.6

iTunes

6.1

MVO

5.7

MVO

1

7.4

1 сезон

6.8

iTunes

7.2

1 сезон

13

6.7

1 сезон

8.3

RePack

30

Deluxe

pack

9.9

Лицензия

ВАЖНО

ИГРА 18+

pack

7.3

RePack

MK11

7.7

RePack

jed

7.8

RePack

fifa19

8.5

RePack

RDR2

RePack

NEED FOR SPEED™ PAYBACK

4 сезон

9 сезон

Бесстыжие 9 сезон

Все сериалы

все сериалы на PB.wtf

RePack

FAR CRY 5

Anonymous, доброй ночи, мы катастрофически не успеваем собрать деньги на оплату серверов, помогите нам пожалуйста 5,10,15р., для нас важна любая помощь . В качестве благодарности мы отключим Вам всю рекламу на сайте (укажите свой ник в строку Ваше имя)!

×
  
Magnet ссылка

Чепелуэйт / Chapelwaite / Сезон: 1 / Серии: 1-5 из 10 (Бёрр Стирс, Джефф Ренфро, Рэйчел Лейтерман) [2021, Ужасы, драма, детектив, WEB-DLRip] MVO [AlexFilm] pb.wtf

Чепелуэйт через торрент pb.wtf

Раздают: 1 [ 0 KB/s ]
Размер: 3.75 GB | Добавлен: 10 д. назад | Торрент скачан:3 раза
Смотреть онлайн Чепелуэйт | Скачать    Ребята, помогите собрать деньги на оплату серверов!!!

27-08-2021 11:35 Чепелуэйт Скачать торрент  

Чепелуэйт | Chapelwaite
Год выпуска: 2021
Страна: США
Выпущено: Epix
Жанр: Ужасы, драма, детектив
Продолжительность: ~ 01:00:00
Перевод: Профессиональный (многоголосый) | AlexFilm
Субтитры: Русские (Forced, Full |Amedia|), английские (SDH)

Режиссер: Бёрр Стирс, Джефф Ренфро, Рэйчел Лейтерман, Дэвид Фрэйзи, Майкл Нанкин

rating

В ролях: Эдриан Броуди, Эмили Хэмпшир, Дженнифер Энс, Сирена Гуламгаус, Йен Хо, Трина Коркум, Горд Рэнд, Аллегра Фултон, Дин Армстронг, Себастьен Лабель, Вокс Смит, Майкл Хью, Гленн Лефчак, Джоэнн Боланд, Кристофер Хейердал, Чарли Риндресс, Дженни Рэймонд, Хью Томпсон, Лили Гао, Шон Скерри, Женевьева Дегрейвс, Девант Сениор, Акадия Колан, Дэвид Россетти, Джастин Колан

Описание: По мотивам рассказа Стивена Кинга «Поселение Иерусалим» (1978). Действие сериала происходит в Америке в 1850-е годы. Отставной капитан Чарльз Бун после смерти молодой жены переезжает с детьми в фамильный особняк Чепелуэйт в штате Мэн. Ему предстоит изучить историю своей семьи и вступить в борьбу с тёмными силами, контролирующими здание. В этом Буну поможет гувернантка его детей Ребекка Морган, которая хочет написать о тайнах Чепелуэйта роман.

Качество: WEB-DLRip
Формат: AVI

Видео: 704x352 at 23.976 fps, XviD, ~ 1 700 kbps avg
Аудио №1: 48.0 kHz, AC3 Dolby Digital, 2/0 (L,R) ch, ~ 192 kbps | RUS
Аудио №2: 48.0 kHz, AC3 Dolby Digital, 2/0 (L,R) ch, ~ 192 kbps | ENG
скриншот  скриншот  скриншот  скриншот  

Общее
Полное имя : D:\Chapelwaite.S01.WEB-DLRip.AlexFilm\Chapelwaite.S01E01.WEB-DLRip.AlexFiklm.avi
Формат : AVI
Формат/Информация : Audio Video Interleave
Размер файла : 903 Мбайт
Продолжительность : 1 ч. 0 м.
Общий поток : 2 098 Кбит/сек
Программа кодирования : VirtualDubMod 1.5.10.3 | www.virtualdub-fr.org || (build 2550/release)
Библиотека кодирования : VirtualDubMod build 2550/release

Видео
Идентификатор : 0
Формат : MPEG-4 Visual
Профиль формата : Advanced Simple@L5
Настройки формата : BVOP1 / Custom Matrix
Параметр BVOP формата : 1
Параметр QPel формата : Нет
Параметр GMC формата : Без точки перехода
Параметр матрицы формата : Выборочная
Идентификатор кодека : XVID
Идентификатор кодека/Подсказка : XviD
Продолжительность : 1 ч. 0 м.
Битрейт : 1 720 Кбит/сек
Ширина : 704 пикселя
Высота : 352 пикселя
Соотношение сторон : 2,000
Частота кадров : 23,976 (24000/1001) кадра/сек
Цветовое пространство : YUV
Субдискретизация насыщенности : 4:2:0
Битовая глубина : 8 бит
Тип развёртки : Прогрессивная
Метод сжатия : С потерями
Бит/(Пиксели*Кадры) : 0.273
Размер потока : 698 Мбайт (77%)
Библиотека кодирования : XviD 69

Аудио #1
Идентификатор : 1
Формат : AC-3
Формат/Информация : Audio Coding 3
Коммерческое название : Dolby Digital
Идентификатор кодека : 2000
Продолжительность : 1 ч. 0 м.
Вид битрейта : Постоянный
Битрейт : 192 Кбит/сек
Каналы : 2 канала
Channel layout : L R
Частота : 48,0 КГц
Частота кадров : 31,250 кадров/сек (1536 SPF)
Метод сжатия : С потерями
Размер потока : 82,7 Мбайт (9%)
Выравнивание : Разделение по промежуткам
Service kind : Complete Main

Аудио #2
Идентификатор : 2
Формат : AC-3
Формат/Информация : Audio Coding 3
Коммерческое название : Dolby Digital
Идентификатор кодека : 2000
Продолжительность : 1 ч. 0 м.
Вид битрейта : Постоянный
Битрейт : 192 Кбит/сек
Каналы : 2 канала
Channel layout : L R
Частота : 48,0 КГц
Частота кадров : 31,250 кадров/сек (1536 SPF)
Метод сжатия : С потерями
Размер потока : 82,7 Мбайт (9%)
Выравнивание : Разделение по промежуткам
Service kind : Complete Main

Внимание! Раздача ведётся путём добавления новых серий; при каждом добавлении создаётся новый торрент.
Чтобы начать докачку новой серии, пользователям необходимо сделать следующее:
1. Остановить скачивание;
2. Удалить старый торрент у себя из клиента (старые серии удалять не надо);
3. Скачать новый торрент и запустить его у себя в клиенте вместо старого, при этом указать клиенту путь в старую папку куда и должно происходить скачивание новых серий. Ваш клиент при этом должен произвести хеширование (проверку) старой папки и будет докачивать только те серии, которых у вас ещё нет. Старые серии при этом не удаляются, а продолжают раздаваться! Eсли вы уже удалили старые серии, то предотвратить повторную закачку старых серий можно, отжав галочку в соответствующих местах при запуске нового торрента.

pb.wtf



Скачать Чепелуэйт через торрент https://i115.fastpic.org/big/2021/0824/a1/9651cfccae1f4975e54d9b204b0f43a1.jpg Скачать, смотреть онлайн Чепелуэйт бесплантно в хорошем качестве Описание: По мотивам рассказа Стивена Кинга «Поселение Иерусалим» (1978). Действие сериала происходит в Америке в 1850-е годы. Отставной ... 8 10 4
Торрент: Зарегистрирован [2021-09-14 23:27] · скачан: 3 раз
Статус: √ проверено
Размер: 3.75 GB
Как cкачать? Как скачать Чепелуэйт через торрент | UTorrent

% Раздел Тема Автор DL S | L
Зарубежные сериалы [ 3.06 GB ] Чепелуэйт / Chapelwaite / Сезон: 1 / Серии: 1-5 из 10 [2021 WEB-DLRip] MVO [LostFilm] bober100 Скачать
3 | 0

28-11-2019 20:33  

Отключить всю рекламу на сайте

    Дорогой пользователь! Огромная просьба, поблагодарите релизера, оцените раздачу и оставьте свои комментарий, если Вы скачали Чепелуэйт через торрент бесплатно!
    Комментировать посты могут только пользователи прошедшие не сложную регистрацию
    Показать сообщения:    

    Чепелуэйт через торрент
    Скачать бесплатно Чепелуэйт
    Чепелуэйт скачать торрент
    Чепелуэйт смотреть онлайн
    Cкачать фильм Чепелуэйт бесплатно
    Чепелуэйт скачать торрент в хорошем качестве
    Чепелуэйт смотреть онлайн бесплатно в хорошем качестве


    Вы не можете начинать темы
    Вы не можете отвечать на сообщения
    Вы не можете редактировать свои сообщения
    Вы не можете удалять свои сообщения
    Вы не можете голосовать в опросах
    Вы не можете прикреплять файлы к сообщениям
    Вы можете скачивать файлы