Присоединяйтесь к нам в Telegram!, здесь всегда актуальный адрес сайта, оперативная поддержка и многое другое!!

>

5.9

iTunes

7.4

iTunes

9.4

1 сезон

1

7.4

2 сезон

7.2

iTunes

7.3

1 сезон

13

6.1

iTunes

8.3

GOG

30

ULTIMATE

pack

9.9

Лицензия

ВАЖНО

ИГРА 18+

pack

7.3

RePack

MK11

7.7

RePack

jed

7.8

RePack

fifa19

8.5

RePack

RDR2

RePack

NEED FOR SPEED™ PAYBACK

5 сезон

9 сезон

Бесстыжие 9 сезон

Все сериалы

все сериалы на PB.wtf

RePack

FAR CRY 5

Anonymous, добрый вечер, мы катастрофически не успеваем собрать деньги на оплату серверов, помогите нам пожалуйста 5,10,15р., для нас важна любая помощь . В качестве благодарности мы отключим Вам всю рекламу на сайте (укажите свой ник в строку Ваше имя)!

×
  
Magnet ссылка

Магазинные воришки всего мира / Shoplifters of the World (Стивен Кижак) [2021, Драма, комедия, HDRip-AVC] DUB [iTunes] от MediaBit pb.wtf

Магазинные воришки всего мира через торрент pb.wtf

Размер: 2.05 GB | Добавлен: 3 мес. 3 д. назад | Торрент скачан:18 раз
Смотреть онлайн Магазинные воришки всего мира | Скачать    Ребята, помогите собрать деньги на оплату серверов!!!

27-08-2021 15:38 Магазинные воришки всего мира Скачать торрент  


Магазинные воришки всего мира / Shoplifters of the World
Информация о фильме:
Название: Магазинные воришки всего мира
Оригинальное название: Shoplifters of the World
Год выхода: 2021
Жанр: Драма, комедия
Режиссер: Стивен Кижак
В ролях: Елена Ховард, Елена Кампурис, Джеймс Блур, Ник Краузе, Эллар Колтрейн, Джо Манганьелло, Томас Леннон, Оливия Луккарди, Камерон Мулен, Селия Ау

Описание: 1987 год, Денвер. Четверо друзей шокированы внезапным распадом культовой британской группы The Smiths, а местная радиостанция оказывается под прицелом сумасшедшего поклонника «Смитов» — эта ночь станет самой безумной в их жизни.



Страна: США
Студия: 3:59, Oscura Film, Untitled Entertainment
Продолжительность: 01:30:39
Перевод: Дублированный - iTunes



Информация о файле:
Кодек: AVC
Формат: MKV
Качество: HDRip-AVC
Видео: MPEG-4 AVC, 1024x428, 24.000 fps, 2403 kb/s
Аудио RU: AC3, 6 ch, 48 kHz, 384 kbps
Аудио EN: AC3, 6 ch, 48 kHz, 448 kbps
Субтитры: Английские

General
Unique ID : 1226506276757534171963022360414137868 (0xEC376DA0BC6E2F1D9257B8EDCA2E0C)
Complete name : D:\uTorrent\Рипы wolf1245\Shoplifters.of.the.World.2021.DUB.iTunes.HDRip-AVC.[wolf1245.MediaBit].mkv
Format : Matroska
Format version : Version 4
File size : 2.05 GiB
Duration : 1 h 30 min
Overall bit rate : 3 235 kb/s
Movie name : Shoplifters.of.the.World.2021.DUB.iTunes.HDRip-AVC.[wolf1245.MediaBit]
Encoded date : UTC 2021-08-27 15:13:59
Writing application : mkvmerge v60.0.0 ('Are We Copies?') 64-bit
Writing library : libebml v1.4.2 + libmatroska v1.6.4

Video
ID : 1
Format : AVC
Format/Info : Advanced Video Codec
Format profile : High@L4.1
Format settings : CABAC / 12 Ref Frames
Format settings, CABAC : Yes
Format settings, Reference frames : 12 frames
Codec ID : V_MPEG4/ISO/AVC
Duration : 1 h 30 min
Bit rate : 2 403 kb/s
Width : 1 024 pixels
Height : 428 pixels
Display aspect ratio : 2.40:1
Frame rate mode : Constant
Frame rate : 24.000 FPS
Color space : YUV
Chroma subsampling : 4:2:0
Bit depth : 8 bits
Scan type : Progressive
Bits/(Pixel*Frame) : 0.228
Stream size : 1.52 GiB (74%)
Title : -=[wolf1245.MediaBit]=-
Writing library : x264 core 157 r2958 57baac4
Encoding settings : cabac=1 / ref=12 / deblock=1:-3:-3 / analyse=0x3:0x133 / me=umh / subme=11 / psy=1 / psy_rd=1.00:0.05 / mixed_ref=1 / me_range=48 / chroma_me=1 / trellis=2 / 8x8dct=1 / cqm=0 / deadzone=21,11 / fast_pskip=1 / chroma_qp_offset=-3 / threads=10 / lookahead_threads=2 / sliced_threads=0 / nr=0 / decimate=1 / interlaced=0 / bluray_compat=0 / constrained_intra=0 / bframes=12 / b_pyramid=2 / b_adapt=2 / b_bias=0 / direct=3 / weightb=1 / open_gop=0 / weightp=2 / keyint=240 / keyint_min=24 / scenecut=40 / intra_refresh=0 / rc_lookahead=60 / rc=2pass / mbtree=1 / bitrate=2403 / ratetol=1.0 / qcomp=0.60 / qpmin=0 / qpmax=69 / qpstep=4 / cplxblur=20.0 / qblur=0.5 / vbv_maxrate=50000 / vbv_bufsize=62500 / nal_hrd=none / filler=0 / ip_ratio=1.40 / aq=3:0.80
Language : English
Default : Yes
Forced : No

Audio #1
ID : 2
Format : AC-3
Format/Info : Audio Coding 3
Commercial name : Dolby Digital
Codec ID : A_AC3
Duration : 1 h 30 min
Bit rate mode : Constant
Bit rate : 384 kb/s
Channel(s) : 6 channels
Channel layout : L R C LFE Ls Rs
Sampling rate : 48.0 kHz
Frame rate : 31.250 FPS (1536 SPF)
Compression mode : Lossy
Stream size : 249 MiB (12%)
Title : DUB | iTunes
Language : Russian
Service kind : Complete Main
Default : Yes
Forced : No

Audio #2
ID : 3
Format : AC-3
Format/Info : Audio Coding 3
Commercial name : Dolby Digital
Codec ID : A_AC3
Duration : 1 h 30 min
Bit rate mode : Constant
Bit rate : 448 kb/s
Channel(s) : 6 channels
Channel layout : L R C LFE Ls Rs
Sampling rate : 48.0 kHz
Frame rate : 31.250 FPS (1536 SPF)
Compression mode : Lossy
Stream size : 290 MiB (14%)
Title : Original
Language : English
Service kind : Complete Main
Default : No
Forced : No

Text
ID : 4
Format : UTF-8
Codec ID : S_TEXT/UTF8
Codec ID/Info : UTF-8 Plain Text
Duration : 1 h 29 min
Bit rate : 65 b/s
Count of elements : 1438
Stream size : 43.4 KiB (0%)
Title : SDH
Language : English
Default : No
Forced : No

Menu
00:00:00.000 : :Chapter 01
00:08:35.583 : :Chapter 02
00:15:26.375 : :Chapter 03
00:23:03.291 : :Chapter 04
00:39:19.708 : :Chapter 05
00:59:19.666 : :Chapter 06
01:13:16.416 : :Chapter 07
01:24:04.958 : :Chapter 08
Релиз от: &

Автор релиза:
pb.wtf



Скачать Магазинные воришки всего мира через торрент https://i115.fastpic.org/big/2021/0827/c5/f71a335a3349d889e1c9ecfabf7b8bc5.jpg Скачать, смотреть онлайн Магазинные воришки всего мира бесплантно в хорошем качестве Описание: 1987 год, Денвер. Четверо друзей шокированы внезапным распадом культовой британской группы The Smiths, а местная радиостанция ... 10 10 1
Торрент: Зарегистрирован [2021-08-27 15:38] · скачан: 18 раз
Статус: √ проверено
Размер: 2.05 GB
Как cкачать? Как скачать Магазинные воришки всего мира через торрент | UTorrent

28-11-2019 20:33  

Отключить всю рекламу на сайте

    Дорогой пользователь! Огромная просьба, поблагодарите релизера, оцените раздачу и оставьте свои комментарий, если Вы скачали Магазинные воришки всего мира через торрент бесплатно!
    Комментировать посты могут только пользователи прошедшие не сложную регистрацию
    Показать сообщения:    

    Магазинные воришки всего мира через торрент
    Скачать бесплатно Магазинные воришки всего мира
    Магазинные воришки всего мира скачать торрент
    Магазинные воришки всего мира смотреть онлайн
    Cкачать фильм Магазинные воришки всего мира бесплатно
    Магазинные воришки всего мира скачать торрент в хорошем качестве
    Магазинные воришки всего мира смотреть онлайн бесплатно в хорошем качестве


    Вы не можете начинать темы
    Вы не можете отвечать на сообщения
    Вы не можете редактировать свои сообщения
    Вы не можете удалять свои сообщения
    Вы не можете голосовать в опросах
    Вы не можете прикреплять файлы к сообщениям
    Вы можете скачивать файлы