Достать ножи: Стеклянная луковица

MVO

Добыча

Дубляж

Уэнсдэй

1 сезон

Тор

Дубляж

13 клиническая

1 сезон

Жестокая ночь

MVO

Одни из нас

1 сезон

Deluxe

pack

Рекомендуем

30

Пиратка

ВАЖНО

ВАЖНО

Ghostwire

Пиратка

jed

RePack

nioh2

RePack

RDR2

RePack

NEED FOR SPEED™ PAYBACK

RePack

скачать торрент

Кинопоиск HD

Острые козырьки 6 сезон

6 сезон

FAR CRY 6

RePack

скачать торрент

Лицензия

скачать торрент

MVO

1

1 сезон

скачать торрент

1 сезон

скачать торрент

Лицензия

  

Без резких движений / No Sudden Move (Стивен Содерберг) [2021, Криминал, драма, детектив, WEBRip-AVC] Дубляж, DVO, AVO [Яроцкий, Pazl Voice] от MediaBit

Без резких движений через торрент pb.wtf

Размер: 3.35 GB | Добавлен: 1 год 5 мес. назад | Торрент скачан:101 раз
Смотреть онлайн | Скачать | Поддержите нас   

27-08-2021 17:55 Без резких движений Скачать торрент  


Без резких движений / No Sudden Move
Название: Без резких движений
Оригинальное название: No Sudden Move
Год выхода: 2021
Жанр: Криминал, драма, детектив
Режиссер: Стивен Содерберг

В ролях: Дон Чидл, Бенисио Дель Торо, Брендан Фрейзер, Рэй Лиотта, Мумс Да Шемер, Мэтт Дэймон, Джулия Фокс, Эми Саймец, Дэвид Харбор, Ноа Джуп, Люси Холт, Клаудия Расселл

Описание: Детройт, 1954 год. Трёх мелких криминальных элементов нанимают провернуть одно дельце: двое должны взять в заложники семью бухгалтера, а третий — съездить с ним в офис, чтобы тот забрал из сейфа босса некий документ. Всё, вроде бы, проходит гладко, но дело принимает неожиданный оборот, и теперь бандиты будут пытаться выяснить, кто же их на самом деле втянул в эту ситуацию.



Страна: США
Студия: HBO Max, Warner Bros., Warner Max
Продолжительность: 01:55:05
Перевод: Дублированный, Авторский, Яроцкий Михаил (kyberpunk) , любительский двухголосый - Pazl Voice



Информация о файле:
Кодек: AVC
Формат: MKV
Качество: WEBRip-AVC
Видео: MPEG-4 AVC, 1024x474, 23.976 fps, 2506 kbps
Аудио RU: AC3, 6 ch, 48 kHz, 384 kbps | Дубляж
Аудио RU: AC3, 6 ch, 48 kHz, 448 kbps | Яроцкий
Аудио RU: AC3, 6 ch, 48 kHz, 448 kbps | Pazl Voice
Аудио EN: AC3, 6 ch, 48 kHz, 384 kbps | Original
Субтитры: Русские (Forced, Full), английские (Full, SDH)

x264 info: frame I:1168 Avg QP:10.61 size:102899
x264 info: frame P:35830 Avg QP:13.60 size: 31671
x264 info: frame B:128565 Avg QP:16.65 size: 7061
General
Unique ID : 110653422066197834443134077078026658819 (0x533F12EB26AE3BE2CF1921FE84992403)
Complete name : D:uTorrentРипы wolf1245No.Sudden.Move.2021.Дубляж.DVO.AVO.WEBRip-AVC.[wolf1245.MediaBit].mkv
Format : Matroska
Format version : Version 4
File size : 3.35 GiB
Duration : 1 h 55 min
Overall bit rate : 4 172 kb/s
Movie name : No.Sudden.Move.2021.Дубляж.DVO.AVO.WEBRip-AVC.[wolf1245.MediaBit]
Encoded date : UTC 2021-08-27 17:37:45
Writing application : mkvmerge v60.0.0 ('Are We Copies?') 64-bit
Writing library : libebml v1.4.2 + libmatroska v1.6.4
Video
ID : 1
Format : AVC
Format/Info : Advanced Video Codec
Format profile : [email protected]
Format settings : CABAC / 14 Ref Frames
Format settings, CABAC : Yes
Format settings, Reference frames : 14 frames
Codec ID : V_MPEG4/ISO/AVC
Duration : 1 h 55 min
Bit rate : 2 506 kb/s
Width : 1 024 pixels
Height : 474 pixels
Display aspect ratio : 2.2:1
Frame rate mode : Constant
Frame rate : 23.976 (24000/1001) FPS
Color space : YUV
Chroma subsampling : 4:2:0
Bit depth : 8 bits
Scan type : Progressive
Bits/(Pixel*Frame) : 0.215
Stream size : 2.01 GiB (60%)
Title : -=[wolf1245.MediaBit]=-
Writing library : x264 core 157 r2958 57baac4
Encoding settings : cabac=1 / ref=14 / deblock=1:-2:-1 / analyse=0x3:0x133 / me=umh / subme=10 / psy=1 / psy_rd=0.98:0.07 / mixed_ref=1 / me_range=32 / chroma_me=1 / trellis=2 / 8x8dct=1 / cqm=0 / deadzone=21,11 / fast_pskip=1 / chroma_qp_offset=-3 / threads=10 / lookahead_threads=2 / sliced_threads=0 / nr=0 / decimate=1 / interlaced=0 / bluray_compat=0 / constrained_intra=0 / bframes=12 / b_pyramid=2 / b_adapt=2 / b_bias=0 / direct=3 / weightb=1 / open_gop=0 / weightp=2 / keyint=240 / keyint_min=24 / scenecut=40 / intra_refresh=0 / rc_lookahead=60 / rc=2pass / mbtree=1 / bitrate=2506 / ratetol=1.0 / qcomp=0.60 / qpmin=0 / qpmax=69 / qpstep=4 / cplxblur=20.0 / qblur=0.5 / vbv_maxrate=50000 / vbv_bufsize=62500 / nal_hrd=none / filler=0 / ip_ratio=1.40 / aq=3:0.80
Language : English
Default : Yes
Forced : No
Color range : Limited
Color primaries : BT.709
Transfer characteristics : BT.709
Matrix coefficients : BT.709
Audio #1
ID : 2
Format : AC-3
Format/Info : Audio Coding 3
Commercial name : Dolby Digital
Codec ID : A_AC3
Duration : 1 h 55 min
Bit rate mode : Constant
Bit rate : 384 kb/s
Channel(s) : 6 channels
Channel layout : L R C LFE Ls Rs
Sampling rate : 48.0 kHz
Frame rate : 31.250 FPS (1536 SPF)
Compression mode : Lossy
Stream size : 316 MiB (9%)
Title : [Дубляж]
Language : Russian
Service kind : Complete Main
Default : Yes
Forced : No
Audio #2
ID : 3
Format : AC-3
Format/Info : Audio Coding 3
Commercial name : Dolby Digital
Codec ID : A_AC3
Duration : 1 h 55 min
Bit rate mode : Constant
Bit rate : 448 kb/s
Channel(s) : 6 channels
Channel layout : L R C LFE Ls Rs
Sampling rate : 48.0 kHz
Frame rate : 31.250 FPS (1536 SPF)
Compression mode : Lossy
Stream size : 369 MiB (11%)
Title : [AVO] Яроцкий / kyberpunk
Language : Russian
Service kind : Complete Main
Default : No
Forced : No
Audio #3
ID : 4
Format : AC-3
Format/Info : Audio Coding 3
Commercial name : Dolby Digital
Codec ID : A_AC3
Duration : 1 h 55 min
Bit rate mode : Constant
Bit rate : 448 kb/s
Channel(s) : 6 channels
Channel layout : L R C LFE Ls Rs
Sampling rate : 48.0 kHz
Frame rate : 31.250 FPS (1536 SPF)
Compression mode : Lossy
Stream size : 369 MiB (11%)
Title : [DVO] Pazl Voice
Language : Russian
Service kind : Complete Main
Default : No
Forced : No
Audio #4
ID : 5
Format : AC-3
Format/Info : Audio Coding 3
Commercial name : Dolby Digital
Codec ID : A_AC3
Duration : 1 h 55 min
Bit rate mode : Constant
Bit rate : 384 kb/s
Channel(s) : 6 channels
Channel layout : L R C LFE Ls Rs
Sampling rate : 48.0 kHz
Frame rate : 31.250 FPS (1536 SPF)
Compression mode : Lossy
Stream size : 316 MiB (9%)
Title : [English]
Language : English
Service kind : Complete Main
Default : No
Forced : No
Text #1
ID : 6
Format : UTF-8
Codec ID : S_TEXT/UTF8
Codec ID/Info : UTF-8 Plain Text
Duration : 1 h 50 min
Bit rate : 0 b/s
Count of elements : 7
Stream size : 640 Bytes (0%)
Title : [forced]
Language : Russian
Default : Yes
Forced : No
Text #2
ID : 7
Format : UTF-8
Codec ID : S_TEXT/UTF8
Codec ID/Info : UTF-8 Plain Text
Duration : 1 h 50 min
Bit rate : 93 b/s
Count of elements : 1537
Stream size : 75.6 KiB (0%)
Title : [full]
Language : Russian
Default : No
Forced : No
Text #3
ID : 8
Format : UTF-8
Codec ID : S_TEXT/UTF8
Codec ID/Info : UTF-8 Plain Text
Duration : 1 h 52 min
Bit rate : 56 b/s
Count of elements : 1516
Stream size : 46.3 KiB (0%)
Title : English Full
Language : English
Default : No
Forced : No
Text #4
ID : 9
Format : UTF-8
Codec ID : S_TEXT/UTF8
Codec ID/Info : UTF-8 Plain Text
Duration : 1 h 54 min
Bit rate : 60 b/s
Count of elements : 1646
Stream size : 50.9 KiB (0%)
Title : English SDH
Language : English
Default : No
Forced : No
Релиз от: amp;




Скачать Без резких движений через торрент https://i115.fastpic.org/big/2021/0827/7c/b06242f9290487fdfff49fb4d6e8197c.jpg Скачать, смотреть онлайн Без резких движений бесплантно в хорошем качестве Описание: Детройт, 1954 год. Трёх мелких криминальных элементов нанимают провернуть одно дельце: двое должны взять в заложники семью ... 10 10 4
Торрент: Зарегистрирован [2021-08-27 17:55] · скачан: 101 раз
Статус: √ проверено
Размер: 3.35 GB
Как cкачать? Как скачать Без резких движений через торрент | UTorrent

28-11-2019 20:33  


Отключить вcю реклaмy на сайте, в т.ч. и в плеере онлайн просмотра!

    Дорогой пользователь! Огромная просьба, поблагодарите релизера, оцените раздачу и оставьте свои комментарий, если Вы скачали Без резких движений через торрент бесплатно!!
    Комментировать посты могут только пользователи прошедшие не сложную регистрацию
    Показать сообщения:    


    Без резких движений через торрент
    Скачать бесплатно Без резких движений
    Без резких движений скачать торрент
    Без резких движений смотреть онлайн
    Cкачать фильм Без резких движений бесплатно
    Без резких движений скачать торрент в хорошем качестве
    Без резких движений смотреть онлайн бесплатно в хорошем качестве
    Вы не можете начинать темы
    Вы не можете отвечать на сообщения
    Вы не можете редактировать свои сообщения
    Вы не можете удалять свои сообщения
    Вы не можете голосовать в опросах
    Вы не можете прикреплять файлы к сообщениям
    Вы можете скачивать файлы
    Без резких движений / No Sudden Move [2021, Криминал, драма, детектив, WEBRip-AVC] Дубляж, DVO, AVO [Яроцкий, Pazl Voice] от MediaBit смотреть онлайн, скачать торрент picoco.icu