Достать ножи: Стеклянная луковица

MVO

Добыча

Дубляж

Уэнсдэй

1 сезон

Тор

Дубляж

13 клиническая

1 сезон

Жестокая ночь

MVO

Одни из нас

1 сезон

Deluxe

pack

Рекомендуем

30

Пиратка

ВАЖНО

ВАЖНО

Ghostwire

Пиратка

jed

RePack

nioh2

RePack

RDR2

RePack

NEED FOR SPEED™ PAYBACK

RePack

скачать торрент

Кинопоиск HD

Острые козырьки 6 сезон

6 сезон

FAR CRY 6

RePack

скачать торрент

Лицензия

скачать торрент

MVO

1

1 сезон

скачать торрент

1 сезон

скачать торрент

Лицензия

  

Спецслужба: Сигнал тревоги / SAS: Red Notice (Магнус Мартенс) [2021, Боевик, триллер, HDRip-AVC] Дубляж

Спецслужба: Сигнал тревоги через торрент pb.wtf

Размер: 2.4 GB | Добавлен: 1 год 5 мес. назад | Торрент скачан:354 раза
Смотреть онлайн | Скачать | Поддержите нас   

29-08-2021 05:37 Спецслужба: Сигнал тревоги Скачать торрент  

Спецслужба: Сигнал тревоги | SAS: Red Notice
Год выпуска: 2021
Страна: Великобритания, Венгрия, Нидерланды, Швейцария
Выпущено: Creativity Capital, Hero Squared, Parabolic Pictures Inc., Vertigo Films
Жанр: Боевик, триллер
Продолжительность: 02:05:14
Перевод: Дублированный
Субтитры: Aнглийские

Режиссер: Магнус Мартенс

rating

В ролях: Сэм Хьюэн, Ханна Джон-Кэймен, Руби Роуз, Энди Серкис, Том Хоппер, Овайн Йомэн, Том Уилкинсон, Рэй Пантаки, Сара Винтер, Джин Лу, Ноэль Кларк

Описание: Том - спецагент, который всё никак не может выкроить времени на свою девушку. Когда он наконец решает сделать ей предложение, в его планы вмешивается небольшая частная группировка, которая угоняет поезд под Ла-Маншем, на котором они едут в Париж.

Качество: HDRip-AVC
Формат: MKV

Видео: MPEG-4 AVC, 2344 Kбит/с, 1024x428
Аудио: AC3, 48 kHz, 6 ch, ~448.00 kbps avg | русский |
скриншот  скриншот  скриншот  скриншот  скриншот  

x264 info: frame I:1339 Avg QP:13.66 size: 55527
x264 info: frame P:46603 Avg QP:15.44 size: 24018
x264 info: frame B:130272 Avg QP:17.24 size: 7484
Общее
Уникальный идентификатор : 197186034770140182774665004871735272103 (0x9458A61E2BE32B87B3736F170BC762A7)
Полное имя : E:TorrentsSAS- Red Notice.2021.HDRip-AVC_JNS82.mkv
Формат : Matroska
Версия формата : Version 4
Размер файла : 2,40 Гбайт
Продолжительность : 2 ч. 5 м.
Общий поток : 2 749 Кбит/сек
Название фильма : SAS: Red Notice.2021.HDRip-AVC_JNS82
Дата кодирования : UTC 2021-08-28 19:35:57
Программа кодирования : mkvmerge v59.0.0 ('Shining Star') 64-bit
Библиотека кодирования : libebml v1.4.2 + libmatroska v1.6.4

Видео
Идентификатор : 1
Формат : AVC
Формат/Информация : Advanced Video Codec
Профиль формата : [email protected]
Настройки формата : CABAC / 11 Ref Frames
Параметр CABAC формата : Да
Параметр RefFrames формата : 11 кадров
Идентификатор кодека : V_MPEG4/ISO/AVC
Продолжительность : 2 ч. 3 м.
Битрейт : 2 344 Кбит/сек
Ширина : 1 024 пикселя
Высота : 428 пикселей
Соотношение сторон : 2,40:1
Режим частоты кадров : Постоянный
Частота кадров : 23,976 (24000/1001) кадра/сек
Цветовое пространство : YUV
Субдискретизация насыщенности : 4:2:0
Битовая глубина : 8 бит
Тип развёртки : Прогрессивная
Бит/(Пиксели*Кадры) : 0.223
Размер потока : 2,01 Гбайт (84%)
Библиотека кодирования : x264 core 157 r2958 57baac4
Настройки программы : cabac=1 / ref=11 / deblock=1:-3:-3 / analyse=0x3:0x113 / me=umh / subme=11 / psy=1 / psy_rd=1.00:0.05 / mixed_ref=1 / me_range=32 / chroma_me=1 / trellis=2 / 8x8dct=1 / cqm=0 / deadzone=21,11 / fast_pskip=0 / chroma_qp_offset=-3 / threads=8 / lookahead_threads=2 / sliced_threads=0 / nr=0 / decimate=0 / interlaced=0 / bluray_compat=0 / constrained_intra=0 / bframes=11 / b_pyramid=2 / b_adapt=2 / b_bias=0 / direct=3 / weightb=1 / open_gop=0 / weightp=2 / keyint=240 / keyint_min=24 / scenecut=40 / intra_refresh=0 / rc=2pass / mbtree=0 / bitrate=2344 / ratetol=1.0 / qcomp=0.60 / qpmin=0 / qpmax=69 / qpstep=4 / cplxblur=20.0 / qblur=0.5 / ip_ratio=1.40 / pb_ratio=1.30 / aq=1:1.00
Язык : English
Default : Да
Forced : Нет
Цветовой диапазон : Limited
Коэффициенты матрицы : BT.709

Аудио
Идентификатор : 2
Формат : AC-3
Формат/Информация : Audio Coding 3
Коммерческое название : Dolby Digital
Идентификатор кодека : A_AC3
Продолжительность : 2 ч. 5 м.
Вид битрейта : Постоянный
Битрейт : 448 Кбит/сек
Каналы : 6 каналов
Channel layout : L R C LFE Ls Rs
Частота : 48,0 КГц
Частота кадров : 31,250 кадров/сек (1536 SPF)
Метод сжатия : С потерями
Размер потока : 401 Мбайт (16%)
Заголовок : [Дубляж]
Язык : Russian
Service kind : Complete Main
Default : Да
Forced : Нет

Текст
Идентификатор : 3
Формат : UTF-8
Идентификатор кодека : S_TEXT/UTF8
Идентификатор кодека/Информация : UTF-8 Plain Text
Продолжительность : 1 ч. 57 м.
Битрейт : 50 бит/сек
Count of elements : 1301
Размер потока : 43,7 Кбайт (0%)
Язык : English
Default : Нет
Forced : Нет

Меню
00:00:00.000 : :Chapter 01
00:12:46.766 : :Chapter 02
00:30:22.612 : :Chapter 03
00:48:20.773 : :Chapter 04
01:12:58.416 : :Chapter 05
01:37:24.714 : :Chapter 06




Скачать Спецслужба: Сигнал тревоги через торрент https://a.radikal.ru/a02/2108/8b/69d759eef677.jpg Скачать, смотреть онлайн Спецслужба: Сигнал тревоги бесплантно в хорошем качестве Описание: Том - спецагент, который всё никак не может выкроить времени на свою девушку. Когда он наконец решает сделать ей предложение, в ... 9.9 10 8
Торрент: Зарегистрирован [2021-08-29 05:37] · скачан: 354 раз
Статус: √ проверено
Размер: 2.4 GB
Как cкачать? Как скачать Спецслужба: Сигнал тревоги через торрент | UTorrent

28-11-2019 20:33  


Отключить вcю реклaмy на сайте, в т.ч. и в плеере онлайн просмотра!

    Дорогой пользователь! Огромная просьба, поблагодарите релизера, оцените раздачу и оставьте свои комментарий, если Вы скачали Спецслужба: Сигнал тревоги через торрент бесплатно!!
    Комментировать посты могут только пользователи прошедшие не сложную регистрацию
    Показать сообщения:    


    Спецслужба: Сигнал тревоги через торрент
    Скачать бесплатно Спецслужба: Сигнал тревоги
    Спецслужба: Сигнал тревоги скачать торрент
    Спецслужба: Сигнал тревоги смотреть онлайн
    Cкачать фильм Спецслужба: Сигнал тревоги бесплатно
    Спецслужба: Сигнал тревоги скачать торрент в хорошем качестве
    Спецслужба: Сигнал тревоги смотреть онлайн бесплатно в хорошем качестве
    Вы не можете начинать темы
    Вы не можете отвечать на сообщения
    Вы не можете редактировать свои сообщения
    Вы не можете удалять свои сообщения
    Вы не можете голосовать в опросах
    Вы не можете прикреплять файлы к сообщениям
    Вы можете скачивать файлы
    Спецслужба: Сигнал тревоги / SAS: Red Notice [2021, Боевик, триллер, HDRip-AVC] Дубляж смотреть онлайн, скачать торрент picoco.icu