Присоединяйтесь к нам в Telegram!, здесь всегда актуальный адрес сайта, оперативная поддержка и многое другое!!

>

5.9

iTunes

7.4

iTunes

9.4

1 сезон

1

7.4

2 сезон

7.2

iTunes

7.3

1 сезон

13

6.1

iTunes

8.3

GOG

30

ULTIMATE

pack

9.9

Лицензия

ВАЖНО

ИГРА 18+

pack

7.3

RePack

MK11

7.7

RePack

jed

7.8

RePack

fifa19

8.5

RePack

RDR2

RePack

NEED FOR SPEED™ PAYBACK

5 сезон

9 сезон

Бесстыжие 9 сезон

Все сериалы

все сериалы на PB.wtf

RePack

FAR CRY 5

Anonymous, доброй ночи, мы катастрофически не успеваем собрать деньги на оплату серверов, помогите нам пожалуйста 5,10,15р., для нас важна любая помощь . В качестве благодарности мы отключим Вам всю рекламу на сайте (укажите свой ник в строку Ваше имя)!

×
  
Magnet ссылка

Судная ночь навсегда / The Forever Purge (Эверардо Валерио Гоут) [2021 г., ужасы, боевик, триллер, WEB-DLRip, Дубляж "iTunes"] pb.wtf

Судная ночь навсегда через торрент pb.wtf

Размер: 732 MB | Добавлен: 3 мес. 1 д. назад | Торрент скачан:20 раз
Смотреть онлайн Судная ночь навсегда | Скачать    Ребята, помогите собрать деньги на оплату серверов!!!

29-08-2021 18:54 Судная ночь навсегда Скачать торрент  

Судная ночь навсегда / The Forever Purge
Год выпуска: 2021
Страна: США, Мексика / Universal Pictures , Perfect World Pictures , Platinum Dunes
Жанр: ужасы, боевик, триллер
Продолжительность: 01:43:28
Перевод: Дубляж (iTunes)
«Больше никаких запретов»
Субтитры: русские форсированные – вшитые

Режиссер: Эверардо Валерио Гоут

rating

В ролях: Ана де ла Регера, Теноч Уэрта, Джош Лукас, Ливэн Рамбин, Кэссиди Фриман, Алехандро Эдда, Уилл Пэттон, Уилл Бриттейн, Сэмми Ротиби, Зан Маккларнон

Описание: Этим летом все правила будут нарушены. Группа мародеров решает, что ежегодная Судная ночь не должна заканчиваться с наступлением утра, а может продолжаться бесконечно. Никто больше не будет в безопасности.

Качество: WEB-DLRip
Формат: AVI
Видео кодек: DivX
Аудио кодек: MP3
Видео: 640x344 (1.86:1), 23.976 fps, DivX Codec 4.x ~847 kbps avg, 0.16 bit/pixel
Аудио: 48 kHz, MPEG Layer 3, 2 ch, ~128.00 kbps avg

Общее
Полное имя : G:\ФИЛЬМЫ\Судная ночь навсегда.2021.D.WEB-DLRip.avi
Формат : AVI
Формат/Информация : Audio Video Interleave
Размер файла : 732 Мбайт
Продолжительность : 1 ч. 43 м.
Режим общего битрейта : Переменный
Общий поток : 989 Кбит/сек
Программа кодирования : VirtualDubMod 1.5.10.3 | www.virtualdub-fr.org || (build 2550/release)
Библиотека кодирования : VirtualDubMod build 2550/release

Видео
Идентификатор : 0
Формат : MPEG-4 Visual
Профиль формата : Advanced Simple@L5
Настройки формата : BVOP2
Параметр BVOP формата : 2
Параметр QPel формата : Нет
Параметр GMC формата : Без точки перехода
Параметр матрицы формата : Default (MPEG)
Идентификатор кодека : DIVX
Идентификатор кодека/Информация : Project Mayo
Идентификатор кодека/Подсказка : DivX 4
Продолжительность : 1 ч. 43 м.
Битрейт : 849 Кбит/сек
Ширина : 640 пикселей
Высота : 344 пикселя
Соотношение сторон : 1,85:1
Частота кадров : 23,976 (24000/1001) кадра/сек
Цветовое пространство : YUV
Субдискретизация насыщенности : 4:2:0
Битовая глубина : 8 бит
Тип развёртки : Прогрессивная
Метод сжатия : С потерями
Бит/(Пиксели*Кадры) : 0.161
Размер потока : 628 Мбайт (86%)
Библиотека кодирования : XviD 1.2.1 (UTC 2008-12-04)

Аудио
Идентификатор : 1
Формат : MPEG Audio
Версия формата : Version 1
Профиль формата : Layer 3
Настройки формата : Joint stereo / MS Stereo
Идентификатор кодека : 55
Идентификатор кодека/Подсказка : MP3
Продолжительность : 1 ч. 43 м.
Вид битрейта : Переменный
Битрейт : 128 Кбит/сек
Каналы : 2 канала
Частота : 48,0 КГц
Метод сжатия : С потерями
Размер потока : 94,7 Мбайт (13%)
Выравнивание : Соединение по промежуткам
Продолжительность промежутка : 24 мс. (0,58 видеокадр)
Время предзагрузки промежутка : 486 мс.
Библиотека кодирования : LAME3.99r
Настройки программы : -m j -V 4 -q 2 -lowpass 17 -b 128

Report created by : MediaInfoLib - v21.03
Report created on : UTC 2021-08-29 18:46:18

pb.wtf



Скачать Судная ночь навсегда через торрент https://d.radikal.ru/d08/2108/d4/e1f2347787d7.jpg Скачать, смотреть онлайн Судная ночь навсегда бесплантно в хорошем качестве Описание: Этим летом все правила будут нарушены. Группа мародеров решает, что ежегодная Судная ночь не должна заканчиваться с наступлением ... 10 10 2
Торрент: Зарегистрирован [2021-08-29 18:54] · скачан: 20 раз
Статус: ∑ поглощено
Размер: 732 MB
Как cкачать? Как скачать Судная ночь навсегда через торрент | UTorrent

% Раздел Тема Автор DL S | L
Фильмы 2021 [DVDrip, WEB-DLRip, HDrip] (DUB, MVO) [ 746 MB ] Судная ночь навсегда / The Forever Purge [2021 BDRip] DUB [Пифагор ] bober100 Скачать
4 | 1
Фильмы [HD 720p, 1080p] (Хороший звук DUB, MVO) [ 7.89 GB ] Судная ночь навсегда / The Forever Purge [2021 BDRip 1080p] +AVO [М.Яроцкий] bober100 Скачать
4 | 0
Ultra HD (UHD: 2K, 4K, 8K) — видео сверхвысокой чёткости [ 46.65 GB ] Судная ночь навсегда / The Forever Purge [2021 UHD BDRemux 2160p] +AVO [М.Яроцкий] bober100 Скачать
2 | 0
Фильмы (Blu-ray, BD-Remux, HDDVD) [ 28.2 GB ] Судная ночь навсегда / The Forever Purge [2021 BD Remux 1080p] +AVO [М.Яроцкий] bober100 Скачать
1 | 0
Фильмы [HD 720p, 1080p] (Хороший звук DUB, MVO) [ 3.72 GB ] Судная ночь навсегда / The Forever Purge [2021 BDRip 720p] +AVO [М.Яроцкий] bober100 Скачать
4 | 0
Фильмы 2021 [DVDrip, WEB-DLRip, HDrip] (DUB, MVO) [ 1.46 GB ] Судная ночь навсегда / The Forever Purge [2021 BDRip] - [ / Кинопоиск HD] Twi7ter Скачать
68 | 8
Ultra HD (UHD: 2K, 4K, 8K) — видео сверхвысокой чёткости [ 17.65 GB ] Судная ночь навсегда / The Forever Purge [2021 UHD WEB-DL 2160p] DUB [Пифагор] +DVO [Pazl Voice] bober100 Скачать
2 | 0

28-11-2019 20:33  

Отключить всю рекламу на сайте

28-11-2021 23:11 Судная ночь навсегда Скачать торрент  

Топик был перенесен из форума Фильмы 2021 [DVDrip, WEB-DLRip, HDrip] (DUB, MVO) в форум Для поглощённых раздач

Причина переноса: Судная ночь навсегда / The Forever Purge
bober100pb.wtf



    Дорогой пользователь! Огромная просьба, поблагодарите релизера, оцените раздачу и оставьте свои комментарий, если Вы скачали Судная ночь навсегда через торрент бесплатно!
    Комментировать посты могут только пользователи прошедшие не сложную регистрацию
    Показать сообщения:    

    Судная ночь навсегда через торрент
    Скачать бесплатно Судная ночь навсегда
    Судная ночь навсегда скачать торрент
    Судная ночь навсегда смотреть онлайн
    Cкачать фильм Судная ночь навсегда бесплатно
    Судная ночь навсегда скачать торрент в хорошем качестве
    Судная ночь навсегда смотреть онлайн бесплатно в хорошем качестве


    Вы не можете начинать темы
    Вы не можете отвечать на сообщения
    Вы не можете редактировать свои сообщения
    Вы не можете удалять свои сообщения
    Вы не можете голосовать в опросах
    Вы не можете прикреплять файлы к сообщениям
    Вы можете скачивать файлы