Anonymous, доброй ночи, присоединяйтесь к нам в Telegram!, здесь всегда актуальный адрес сайта, оперативная поддержка и многое другое!

>

5.5

iTunes

7.4

iTunes

7.9

iTunes

1

7.7

1 сезон

6.8

iTunes

7.3

1 сезон

13

6.7

1 сезон

8.3

RePack

30

ULTIMATE

pack

9.9

Лицензия

ВАЖНО

ИГРА 18+

pack

7.3

RePack

MK11

7.7

RePack

jed

7.8

RePack

fifa19

8.5

RePack

RDR2

RePack

NEED FOR SPEED™ PAYBACK

4 сезон

9 сезон

Бесстыжие 9 сезон

Все сериалы

все сериалы на PB.wtf

RePack

FAR CRY 5

Anonymous, доброй ночи, мы катастрофически не успеваем собрать деньги на оплату серверов, помогите нам пожалуйста 5,10,15р., для нас важна любая помощь . В качестве благодарности мы отключим Вам всю рекламу на сайте (укажите свой ник в строку Ваше имя)!

×
  
Magnet ссылка

Патриот / Сезон: 2 / Серии: 1-20 из 20 + Фильм о фильме (Николай Бурлак) [2021, Комедия, WEBRip] pb.wtf

Патриот через торрент pb.wtf

Раздают: 6 [ 106 KB/s ] Качают: 2 [ 0 KB/s ]
Размер: 6.15 GB | Добавлен: 1 мес. 7 д. назад | Торрент скачан:95 раз
Смотреть онлайн Патриот | Скачать    Ребята, помогите собрать деньги на оплату серверов!!!

30-08-2021 18:28 Патриот Скачать торрент  

Патриот 2
Год выпуска: 2021
Страна: Россия
Жанр: Комедия
Продолжительность: ~ 00:25:00 серия
Перевод: Не требуется
Субтитры: отсутствуют

Режиссер: Николай Бурлак

rating

В ролях: Антон Жижин, Алёна Савастова, Анастасия Талызина, Владимир Сычёв, Настасья Самбурская, Алексей Базанов, Валентина Лукащук, Антон Никушин, Юлия Полынская, Евгения Капралова, Василий Березин, Владимир Афанасьев, Георгий Бергал

Описание: Саня приезжает домой из академии ФСБ вместе с товарищем по учебе. Этот «товарищ» оказывается девушкой Айзой, которая по физическим характеристикам даже превосходит Кучина. Был один патриот – стало два патриота. Жена главного героя Катя в бешенстве, она не понимает, что происходит. Саня верит в «братскую» дружбу между мужчиной и женщиной, Катя хочет избавиться от этого «товарища», а тем временем Ленка запустила свой мелкий бизнес с продукцией для знаменитостей и хочет быстрее выплатить отцу остатки долга за свою учёбу. Вдобавок на плечи главного героя сваливаются заботы о магазине, потому что его хозяин внезапно отъехал в больничку. Патриот остается за главного!

Качество: WEBRip
Формат: AVI

Видео: XviD, 720x344, ~ 1600 Кбит/с, 0.257 bit/pixel, 25 Кадр/с
Аудио: 48.0 kHz, AC3 Dolby Digital, 2/0 (L,R) ch, ~ 192 kbps
скриншот  скриншот  скриншот  скриншот  

Общее
Полное имя : D:\Patriot.S02.WEB-DLRip.25Kuzmich\Patriot.s02e01.WEB-DLRip.25Kuzmich.avi
Формат : AVI
Формат/Информация : Audio Video Interleave
Размер файла : 301 Мбайт
Продолжительность : 23 м. 24 с.
Общий поток : 1 795 Кбит/сек
Программа кодирования : VirtualDubMod 1.5.10.3 | www.virtualdub-fr.org || (build 2550/release)
Библиотека кодирования : VirtualDubMod build 2550/release

Видео
Идентификатор : 0
Формат : MPEG-4 Visual
Профиль формата : Advanced Simple@L5
Настройки формата : BVOP1
Параметр BVOP формата : 1
Параметр QPel формата : Нет
Параметр GMC формата : Без точки перехода
Параметр матрицы формата : Default (MPEG)
Идентификатор кодека : XVID
Идентификатор кодека/Подсказка : XviD
Продолжительность : 23 м. 24 с.
Битрейт : 1 593 Кбит/сек
Ширина : 720 пикселей
Высота : 344 пикселя
Соотношение сторон : 2,093
Частота кадров : 25,000 кадров/сек
Цветовое пространство : YUV
Субдискретизация насыщенности : 4:2:0
Битовая глубина : 8 бит
Тип развёртки : Прогрессивная
Метод сжатия : С потерями
Бит/(Пиксели*Кадры) : 0.257
Размер потока : 267 Мбайт (89%)
Библиотека кодирования : XviD 73

Аудио
Идентификатор : 1
Формат : AC-3
Формат/Информация : Audio Coding 3
Коммерческое название : Dolby Digital
Идентификатор кодека : 2000
Продолжительность : 23 м. 24 с.
Вид битрейта : Постоянный
Битрейт : 192 Кбит/сек
Каналы : 2 канала
Channel layout : L R
Частота : 48,0 КГц
Частота кадров : 31,250 кадров/сек (1536 SPF)
Метод сжатия : С потерями
Размер потока : 32,2 Мбайт (11%)
Выравнивание : Разделение по промежуткам
Продолжительность промежутка : 40 мс. (1,00 видеокадр)
Время предзагрузки промежутка : 500 мс.
Service kind : Complete Main

(1) остановить скачивание,
(2) удалить старый торрент у себя из клиента (старые серии удалять не надо),
(3) скачать новый торрент и запустить его у себя в клиенте вместо старого, при этом указать клиенту путь в старую папку куда и должно происходить скачивание новых серий.
Ваш клиент при этом должен произвести хеширование (проверку) старой папки (если не производит сам - помогите ему сделать это), и будет докачивать только те серии которых у вас ещё нет. Старые серии при этом не удаляются, а продолжают раздаваться!
Eсли вы уже удалили старые серии, то предотвратить повторную закачку старых серий можно, отжав галочку в соответсвующих местах при запуске нового торрента. По возможности, желательно не удалять старые серии как можно дольше чтобы релизёр не столько продолжал раздавать старые серии, а смог сконцентрироваться на новых.
pb.wtf



Скачать Патриот через торрент https://i115.fastpic.org/big/2021/0830/47/ff9ac15ed976cbecfb14ecc7ccae1b47.jpg Скачать, смотреть онлайн Патриот бесплантно в хорошем качестве Описание: Саня приезжает домой из академии ФСБ вместе с товарищем по учебе. Этот «товарищ» оказывается девушкой Айзой, которая по ... 10 10 14
Торрент: Зарегистрирован [2021-09-18 18:04] · скачан: 95 раз
Статус: √ проверено
Размер: 6.15 GB
Как cкачать? Как скачать Патриот через торрент | UTorrent

% Раздел Тема Автор DL S | L
TNT serials [ 10.45 GB ] Патриот / Сезон: 2 / Серии: 1-20 из 20 + Фильм о фильме [2021 WEBRip 720p] bober100 Скачать
4 | 2
TNT serials [ 15.37 GB ] Патриот / Сезон: 2 / Серии: 1-20 из 20 + Фильм о фильме [2021 WEBRip 1080p] bober100 Скачать
5 | 1

28-11-2019 20:33  

Отключить всю рекламу на сайте

    Дорогой пользователь! Огромная просьба, поблагодарите релизера, оцените раздачу и оставьте свои комментарий, если Вы скачали Патриот через торрент бесплатно!
    Комментировать посты могут только пользователи прошедшие не сложную регистрацию
    Показать сообщения:    

    Патриот через торрент
    Скачать бесплатно Патриот
    Патриот скачать торрент
    Патриот смотреть онлайн
    Cкачать фильм Патриот бесплатно
    Патриот скачать торрент в хорошем качестве
    Патриот смотреть онлайн бесплатно в хорошем качестве


    Вы не можете начинать темы
    Вы не можете отвечать на сообщения
    Вы не можете редактировать свои сообщения
    Вы не можете удалять свои сообщения
    Вы не можете голосовать в опросах
    Вы не можете прикреплять файлы к сообщениям
    Вы можете скачивать файлы