Присоединяйтесь к нам в Telegram!, здесь всегда актуальный адрес сайта, оперативная поддержка и многое другое!!

>

5.9

iTunes

7.4

iTunes

9.4

1 сезон

1

7.4

2 сезон

7.2

iTunes

7.3

1 сезон

13

6.1

iTunes

8.3

Пиратка

30

ULTIMATE

pack

9.9

Лицензия

ВАЖНО

ИГРА 18+

pack

7.3

RePack

MK11

7.7

RePack

jed

7.8

RePack

fifa19

8.5

RePack

RDR2

RePack

NEED FOR SPEED™ PAYBACK

5 сезон

9 сезон

Бесстыжие 9 сезон

Все сериалы

все сериалы на PB.wtf

RePack

FAR CRY 5

Anonymous, доброй ночи, мы катастрофически не успеваем собрать деньги на оплату серверов, помогите нам пожалуйста 5,10,15р., для нас важна любая помощь . В качестве благодарности мы отключим Вам всю рекламу на сайте (укажите свой ник в строку Ваше имя)!

×
  
Magnet ссылка

Круиз по джунглям / Jungle Cruise (Жауме Кольет-Серра) [2021, Приключения, комедия, фэнтези, WEB-DLRip-AVC] DUB [Line] от MediaBit pb.wtf

Круиз по джунглям через торрент pb.wtf

Раздают: 5 [ 0 KB/s ]
Размер: 1.45 GB | Добавлен: 3 мес. 5 д. назад | Торрент скачан:337 раз
Смотреть онлайн Круиз по джунглям | Скачать    Ребята, помогите собрать деньги на оплату серверов!!!

31-08-2021 06:46 Круиз по джунглям Скачать торрент  


Круиз по джунглям / Jungle Cruise
Информация о фильме:
Название: Круиз по джунглям
Оригинальное название: Jungle Cruise
Год выхода: 2021
Жанр: Приключения, комедия, фэнтези
Режиссер: Жауме Кольет-Серра

В ролях: Дуэйн Джонсон, Эмили Блант, Эдгар Рамирес, Джек Уайтхолл, Джесси Племонс, Пол Джаматти, Вероника Фалькон, Дани Ровира, Ким Гутьеррес, Дэн Дарган Картер, Энди Найман, Рафаэль Алехандро, Симона Локхарт, Педро Лопес, Сулем Кальдерон, Себастьян Блант, Марк Эшворт, Аллан Попплтон, Кэролайн Пейдж, Джеймс Кватрочи

Описание: Отважная исследовательница дикой природы Лили Хоутон намерена отправиться в верховья Амазонки, чтобы найти легендарное дерево, которое – согласно преданиям южноамериканских индейских племен – обладает магическими целебными свойствами. Сопровождать Лили будут её утонченный брат Макгрегор и бесшабашный капитан круизного пароходика Фрэнк. В дебрях джунглей путников будут подстерегать не только смертельно опасные представители амазонской флоры и фауны, но и ловушки, подстроенные участниками конкурирующей экспедиции, и даже встречи со сверхъестественным.



Страна: США
Студия: Walt Disney Pictures, Davis Entertainment, 7 Bucks Productions, TSG Entertainment, Zaftig Films, Flynn Picture Company
Продолжительность: 02:07:19
Перевод: Дублированный - Line



Информация о файле:
Кодек: AVC
Формат: MKV
Качество: WEB-DLRip-AVC
Видео: MPEG-4 AVC, 1024x428, 23.976 fps, 1439 kbps
Аудио RU: AC3, 2 ch, 48 kHz, 192 kbps
Субтитры: Russian (Full, Forced), English

General
Unique ID : 218469297213935356702361618287483245099 (0xA45BA7F902CC82C0CEC1CE038B71522B)
Complete name : D:uTorrentРипы wolf1245Jungle.Cruise.2021.Line.WEB-DLRip-AVC.[=wolf1245.MediaBit=].mkv
Format : Matroska
Format version : Version 4
File size : 1.45 GiB
Duration : 2 h 7 min
Overall bit rate : 1 625 kb/s
Movie name : Jungle.Cruise.2021.Line.WEB-DLRip-AVC.[=wolf1245.MediaBit=]
Encoded date : UTC 2021-08-31 06:32:31
Writing application : mkvmerge v60.0.0 ('Are We Copies?') 64-bit
Writing library : libebml v1.4.2 + libmatroska v1.6.4
Video
ID : 1
Format : AVC
Format/Info : Advanced Video Codec
Format profile : High@L4.1
Format settings : CABAC / 12 Ref Frames
Format settings, CABAC : Yes
Format settings, Reference frames : 12 frames
Codec ID : V_MPEG4/ISO/AVC
Duration : 2 h 7 min
Bit rate : 1 439 kb/s
Width : 1 024 pixels
Height : 428 pixels
Display aspect ratio : 2.40:1
Frame rate mode : Constant
Frame rate : 23.976 (24000/1001) FPS
Color space : YUV
Chroma subsampling : 4:2:0
Bit depth : 8 bits
Scan type : Progressive
Bits/(Pixel*Frame) : 0.137
Stream size : 1.27 GiB (88%)
Title : -=[wolf1245.MediaBit]=-
Writing library : x264 core 161 r3020 d198931
Encoding settings : cabac=1 / ref=12 / deblock=1:-2:-1 / analyse=0x3:0x133 / me=umh / subme=10 / psy=1 / psy_rd=1.00:0.00 / mixed_ref=1 / me_range=32 / chroma_me=1 / trellis=2 / 8x8dct=1 / cqm=0 / deadzone=21,11 / fast_pskip=1 / chroma_qp_offset=-2 / threads=10 / lookahead_threads=2 / sliced_threads=0 / nr=0 / decimate=1 / interlaced=0 / bluray_compat=0 / constrained_intra=0 / bframes=10 / b_pyramid=2 / b_adapt=2 / b_bias=0 / direct=3 / weightb=1 / open_gop=0 / weightp=2 / keyint=240 / keyint_min=24 / scenecut=40 / intra_refresh=0 / rc_lookahead=60 / rc=2pass / mbtree=1 / bitrate=1439 / ratetol=1.0 / qcomp=0.65 / qpmin=0 / qpmax=69 / qpstep=4 / cplxblur=20.0 / qblur=0.5 / vbv_maxrate=50000 / vbv_bufsize=62500 / nal_hrd=none / filler=0 / ip_ratio=1.40 / aq=3:0.80
Language : English
Default : Yes
Forced : No
Color range : Limited
Color primaries : BT.709
Transfer characteristics : BT.709
Matrix coefficients : BT.709
Audio
ID : 2
Format : AC-3
Format/Info : Audio Coding 3
Commercial name : Dolby Digital
Codec ID : A_AC3
Duration : 2 h 7 min
Bit rate mode : Constant
Bit rate : 192 kb/s
Channel(s) : 2 channels
Channel layout : L R
Sampling rate : 48.0 kHz
Frame rate : 31.250 FPS (1536 SPF)
Compression mode : Lossy
Stream size : 175 MiB (12%)
Title : DUB | Line
Language : Russian
Service kind : Complete Main
Default : Yes
Forced : No
Text #1
ID : 3
Format : UTF-8
Codec ID : S_TEXT/UTF8
Codec ID/Info : UTF-8 Plain Text
Duration : 1 h 48 min
Bit rate : 5 b/s
Count of elements : 114
Stream size : 4.33 KiB (0%)
Title : Forced
Language : Russian
Default : Yes
Forced : No
Text #2
ID : 4
Format : UTF-8
Codec ID : S_TEXT/UTF8
Codec ID/Info : UTF-8 Plain Text
Duration : 1 h 56 min
Bit rate : 99 b/s
Count of elements : 1593
Stream size : 84.7 KiB (0%)
Title : Full
Language : Russian
Default : No
Forced : No
Text #3
ID : 5
Format : UTF-8
Codec ID : S_TEXT/UTF8
Codec ID/Info : UTF-8 Plain Text
Duration : 2 h 6 min
Bit rate : 55 b/s
Count of elements : 1643
Stream size : 51.1 KiB (0%)
Title : English
Language : English
Default : No
Forced : No
Релиз от: &
Автор релиза:
pb.wtf



Скачать Круиз по джунглям через торрент https://i115.fastpic.org/big/2021/0831/c1/ca20c48ae6081144ff9aa8aa2af0eec1.jpg Скачать, смотреть онлайн Круиз по джунглям бесплантно в хорошем качестве Описание: Отважная исследовательница дикой природы Лили Хоутон намерена отправиться в верховья Амазонки, чтобы найти легендарное дерево, ... 9.8 10 9
Торрент: Зарегистрирован [2021-08-31 06:46] · скачан: 337 раз
Статус: √ проверено
Размер: 1.45 GB
Как cкачать? Как скачать Круиз по джунглям через торрент | UTorrent

% Раздел Тема Автор DL S | L
Фильмы 2021 [DVDrip, WEB-DLRip, HDrip] (DUB, MVO) [ 2.73 GB ] Круиз по джунглям / Jungle Cruise [2021 WEB-DLRip-AVC] MVO [HDRezka Studio] от MediaBit Lithuania Скачать
18 | 0

28-11-2019 20:33  

Отключить всю рекламу на сайте

    Дорогой пользователь! Огромная просьба, поблагодарите релизера, оцените раздачу и оставьте свои комментарий, если Вы скачали Круиз по джунглям через торрент бесплатно!
    Комментировать посты могут только пользователи прошедшие не сложную регистрацию
    Показать сообщения:    

    Круиз по джунглям через торрент
    Скачать бесплатно Круиз по джунглям
    Круиз по джунглям скачать торрент
    Круиз по джунглям смотреть онлайн
    Cкачать фильм Круиз по джунглям бесплатно
    Круиз по джунглям скачать торрент в хорошем качестве
    Круиз по джунглям смотреть онлайн бесплатно в хорошем качестве


    Вы не можете начинать темы
    Вы не можете отвечать на сообщения
    Вы не можете редактировать свои сообщения
    Вы не можете удалять свои сообщения
    Вы не можете голосовать в опросах
    Вы не можете прикреплять файлы к сообщениям
    Вы можете скачивать файлы