Всегда рабочее зеркало без VPN и Proxy просто перед .vidak.icu напиши любое слово или цифру, Пример http://lfft.vidak.icu

MVO

2 сезон

2 сезон

1

1 сезон

iTunes

2 сезон

13

1 сезон

Распродажа

pack

Рекомендуем

Пиратка

30

ВАЖНО

RePack

MK11

RePack

jed

RePack

fifa19

RePack

RDR2

RePack

NEED FOR SPEED™ PAYBACK

Кинопоиск HD

6 сезон

 Острые козырьки 6 сезон

Все сериалы

все сериалы на PB.wtf

RePack

FAR CRY 5

Anonymous, нам критически не хватает 5601 руб. на оплату серверов и переферии за Апрель, помоги нам пожалуйста, вся надежда только на тебя. В благодарность мы отключим тебе всю рекламу на сайте!

×
  
Magnet ссылка

В поисках истины / El desentierro / The Uncovering (Начо Руперес) [2018, Триллер, криминал, детектив, HDRip-AVC] MVO [iTunes] от MediaBit pb.wtf

В поисках истины через торрент pb.wtf

Размер: 1.15 GB | Добавлен: 8 мес. назад | Торрент скачан:26 раз
Смотреть онлайн В поисках истины | Скачать    Ребята, помогите собрать деньги на оплату серверов!!!

01-09-2021 20:17 В поисках истины Скачать торрент  


В поисках истины / El desentierro / The Uncovering
Информация о фильме:
Название: В поисках истины
Оригинальное название: El desentierro / The Uncovering
Год выхода: 2018
Жанр: Триллер, криминал, детектив
Режиссер: Начо Руперес

В ролях: Мишель Нойер, Леонардо Сбаралья, Хан Корнет, Елена Йованова, Несрин Джавадзаде, Арбен Байрактарай, Алекс Франко Хорхе, Франсеск Гарридо

Описание: Хорди недавно приехал из Аргентины на похороны высокопоставленного чиновника. Внезапное появление албанской девушки Веры приводит его к идее расследования прошлого своего отца По, пропавшего 20 лет назад. Его двоюродный брат Диего, по совместительству сын умершего чиновника, проживающий в деревне Перпиньяне, помогает ему в расследовании. Вместе они должны заглянуть в прошлое и пролить свет на историю По, пытавшегося бежать из страны с матерью Веры, которая попала в сексуальное рабство.



Страна: Испания, Аргентина
Студия: Aleph Media, Desentierro, El, Instituto Nacional de Cine y Artes Audiovisuales
Продолжительность: 01:49:01
Перевод: Профессиональный (многоголосый, закадровый) - iTunes



Информация о файле:
Кодек: AVC
Формат: MKV
Качество: HDRip-AVC
Видео: MPEG-4 AVC, 1024x428, 24.000 fps, 1121 kb/s
Аудио RU: AC3, 6 ch, 48 kHz, 384 kbps
Субтитры: English

General
Unique ID : 186677363569150295133587324542746711866 (0x8C70C0A026A1FE67FEFA8BBF919D573A)
Complete name : D:uTorrentРипы wolf1245The.Uncovering.2018.MVO.ITUNES.HDRip-AVC.[=wolf1245.MediaBit=].mkv
Format : Matroska
Format version : Version 4
File size : 1.15 GiB
Duration : 1 h 49 min
Overall bit rate : 1 506 kb/s
Movie name : The.Uncovering.2018.MVO.ITUNES.HDRip-AVC.[=wolf1245.MediaBit=]
Encoded date : UTC 2021-09-01 20:02:17
Writing application : mkvmerge v61.0.0 ('So') 64-bit
Writing library : libebml v1.4.2 + libmatroska v1.6.4
Video
ID : 1
Format : AVC
Format/Info : Advanced Video Codec
Format profile : High@L4.1
Format settings : CABAC / 14 Ref Frames
Format settings, CABAC : Yes
Format settings, Reference frames : 14 frames
Codec ID : V_MPEG4/ISO/AVC
Duration : 1 h 49 min
Bit rate : 1 121 kb/s
Width : 1 024 pixels
Height : 428 pixels
Display aspect ratio : 2.40:1
Frame rate mode : Constant
Frame rate : 24.000 FPS
Color space : YUV
Chroma subsampling : 4:2:0
Bit depth : 8 bits
Scan type : Progressive
Bits/(Pixel*Frame) : 0.107
Stream size : 874 MiB (74%)
Title : -=[wolf1245.MediaBit]=-
Writing library : x264 core 161 r3020 d198931
Encoding settings : cabac=1 / ref=14 / deblock=1:-3:-3 / analyse=0x3:0x133 / me=umh / subme=11 / psy=1 / psy_rd=1.00:0.07 / mixed_ref=1 / me_range=48 / chroma_me=1 / trellis=2 / 8x8dct=1 / cqm=0 / deadzone=21,11 / fast_pskip=1 / chroma_qp_offset=-3 / threads=10 / lookahead_threads=2 / sliced_threads=0 / nr=0 / decimate=1 / interlaced=0 / bluray_compat=0 / constrained_intra=0 / bframes=12 / b_pyramid=2 / b_adapt=2 / b_bias=0 / direct=3 / weightb=1 / open_gop=0 / weightp=2 / keyint=240 / keyint_min=24 / scenecut=40 / intra_refresh=0 / rc_lookahead=60 / rc=crf / mbtree=1 / crf=19.0 / qcomp=0.60 / qpmin=0 / qpmax=69 / qpstep=4 / vbv_maxrate=50000 / vbv_bufsize=62500 / crf_max=0.0 / nal_hrd=none / filler=0 / ip_ratio=1.40 / aq=1:0.80
Language : English
Default : Yes
Forced : No
Audio
ID : 2
Format : AC-3
Format/Info : Audio Coding 3
Commercial name : Dolby Digital
Codec ID : A_AC3
Duration : 1 h 49 min
Bit rate mode : Constant
Bit rate : 384 kb/s
Channel(s) : 6 channels
Channel layout : L R C LFE Ls Rs
Sampling rate : 48.0 kHz
Frame rate : 31.250 FPS (1536 SPF)
Compression mode : Lossy
Stream size : 299 MiB (25%)
Title : MVO (iTunes)
Language : Russian
Service kind : Complete Main
Default : Yes
Forced : No
Text
ID : 3
Format : UTF-8
Codec ID : S_TEXT/UTF8
Codec ID/Info : UTF-8 Plain Text
Duration : 1 h 47 min
Bit rate : 42 b/s
Count of elements : 1231
Stream size : 33.2 KiB (0%)
Title : English
Language : English
Default : Yes
Forced : Yes
Menu
00:00:00.000 : :00:00:00.000
00:13:55.042 : :00:13:55.042
00:26:48.333 : :00:26:48.333
00:41:17.542 : :00:41:17.542
00:53:24.417 : :00:53:24.417
01:06:52.542 : :01:06:52.542
01:17:52.042 : :01:17:52.042
01:32:35.333 : :01:32:35.333
Релиз от: &
Автор релиза:


pb.wtf



Скачать В поисках истины через торрент https://i115.fastpic.org/big/2021/0901/44/cdc1a8ed23d81cc1ce8dce94c431a244.png Скачать, смотреть онлайн В поисках истины бесплантно в хорошем качестве Описание: Хорди недавно приехал из Аргентины на похороны высокопоставленного чиновника. Внезапное появление албанской девушки Веры ... 10 10 5
Торрент: Зарегистрирован [2021-09-01 20:17] · скачан: 26 раз
Статус: √ проверено
Размер: 1.15 GB
Как cкачать? Как скачать В поисках истины через торрент | UTorrent

28-11-2019 20:33  

Отключить всю рекламу на сайте

    Дорогой пользователь! Огромная просьба, поблагодарите релизера, оцените раздачу и оставьте свои комментарий, если Вы скачали В поисках истины через торрент бесплатно!
    Комментировать посты могут только пользователи прошедшие не сложную регистрацию
    Показать сообщения:    

    В поисках истины через торрент
    Скачать бесплатно В поисках истины
    В поисках истины скачать торрент
    В поисках истины смотреть онлайн
    Cкачать фильм В поисках истины бесплатно
    В поисках истины скачать торрент в хорошем качестве
    В поисках истины смотреть онлайн бесплатно в хорошем качестве


    Вы не можете начинать темы
    Вы не можете отвечать на сообщения
    Вы не можете редактировать свои сообщения
    Вы не можете удалять свои сообщения
    Вы не можете голосовать в опросах
    Вы не можете прикреплять файлы к сообщениям
    Вы можете скачивать файлы