Всегда рабочее зеркало без VPN и Proxy просто перед .vidak.icu напиши любое слово или цифру, Пример http://qlv0.vidak.icu

MVO

MVO

1 сезон

1

1 сезон

iTunes

1 сезон

13

1 сезон

Deluxe

pack

Рекомендуем

Repack

30

ВАЖНО

RePack

MK11

RePack

jed

RePack

fifa19

RePack

RDR2

RePack

NEED FOR SPEED™ PAYBACK

Кинопоиск HD

6 сезон

 Острые козырьки 6 сезон

Все сериалы

все сериалы на PB.wtf

RePack

FAR CRY 5
  
Magnet ссылка

Любовь по ту сторону / Faraway Eyes / Here After (Гарри Гринбергер) [2020, Фэнтези, мелодрама, комедия, WEB-DL 1080p] DUB [iTunes] pb.wtf

Любовь по ту сторону через торрент pb.wtf

Размер: 4.52 GB | Добавлен: 11 мес. назад | Торрент скачан:103 раза
Смотреть онлайн Любовь по ту сторону | Скачать    Ребята, помогите собрать деньги на оплату серверов!!!

02-09-2021 17:51 Любовь по ту сторону Скачать торрент  

Любовь по ту сторону | Faraway Eyes | Here After
Год выпуска: 2020
Страна: США
Выпущено: Dayenu Films
Жанр: Фэнтези, мелодрама, комедия
Продолжительность: 02:01:45
Перевод: Дублированный | iTunes
Субтитры: отсутствуют

Режиссер: Гарри Гринбергер

rating

В ролях: Кристина Риччи, Нора Арнезедер, Джеки Крус, Дженни Берлин, Майкл Рисполи, Энди Карл, Флоренция Лозаньо, Никки М. Джеймс, Синди Чунг, Элисса Миддлтон

Описание: Безработный актер попадает в аварию, и его душа разлучается с телом. На том свете ангел в облике красотки в деловом костюме говорит ему, что в рай его не пустят, пока тот не полюбит. Но каково это — выбирать возлюбленную среди… других призраков Нью-Йорка?

Качество: WEB-DL 1080p
Формат: MKV

Видео: MPEG-4 AVC, 4550 Kb/s, 1912x730, 23.976 fps
Аудио #01: 48 kHz, AC3, 5.1, 384 Kbps | Дублированный | iTunes | RUS |
Аудио #02: 48 kHz, AC3, 5.1, 384 Kbps | Оригинал | ENG |
скриншот  скриншот  скриншот  скриншот  

Complete name: Lyubov.po.tu.storonu.2020.WEB-DL.1080p.ELEKTRI4KA.UNIONGANG.mkv
Format: Matroska
Format version: Version 4
File size: 4.52 GiB
Duration: 2 h 1 min
Overall bit rate: 5 320 kb/s
Movie name: Lyubov po tu storonu.2020.WEB-DL.1080p.ELEKTRI4KA.UNIONGANG.
Encoded date: UTC 2021-09-01 22:04:41
Writing application: mkvmerge v8.3.0 ('Over the Horizon') 32bit
Writing library: libebml v1.3.1 + libmatroska v1.4.2

Video
ID: 1
Format: AVC
Format/Info: Advanced Video Codec
Format profile: [email protected]
Format settings: CABAC / 5 Ref Frames
Format settings, CABAC: Yes
Format settings, Reference frames: 5 frames
Codec ID: V_MPEG4/ISO/AVC
Duration: 2 h 1 min
Bit rate: 4 550 kb/s
Width: 1 912 pixels
Height: 730 pixels
Display aspect ratio: 2.619
Frame rate mode: Constant
Frame rate: 23.976 (24000/1001) FPS
Color space: YUV
Chroma subsampling: 4:2:0
Bit depth: 8 bits
Scan type: Progressive
Bits/(Pixel*Frame): 0.136
Stream size: 3.87 GiB (86%)
Language: English
Default: Yes
Forced: No
Color range: Limited
Color primaries: BT.709
Transfer characteristics: BT.709
Matrix coefficients: BT.709

Audio #1
ID: 2
Format: AC-3
Format/Info: Audio Coding 3
Commercial name: Dolby Digital
Codec ID: A_AC3
Duration: 2 h 1 min
Bit rate mode: Constant
Bit rate: 384 kb/s
Channel(s): 6 channels
Channel layout: L R C LFE Ls Rs
Sampling rate: 48.0 kHz
Frame rate: 31.250 FPS (1536 SPF)
Compression mode: Lossy
Stream size: 334 MiB (7%)
Title: DUB (iTunes)
Language: Russian
Service kind: Complete Main
Default: Yes
Forced: Yes

Audio #2
ID: 3
Format: AC-3
Format/Info: Audio Coding 3
Commercial name: Dolby Digital
Codec ID: A_AC3
Duration: 2 h 1 min
Bit rate mode: Constant
Bit rate: 384 kb/s
Channel(s): 6 channels
Channel layout: L R C LFE Ls Rs
Sampling rate: 48.0 kHz
Frame rate: 31.250 FPS (1536 SPF)
Compression mode: Lossy
Stream size: 334 MiB (7%)
Title: Original
Language: English
Service kind: Complete Main
Default: No
Forced: No

pb.wtf



Скачать Любовь по ту сторону через торрент https://i2.imageban.ru/out/2021/09/02/e9c218ce1276dd16c07dd7cd27ffb633.png Скачать, смотреть онлайн Любовь по ту сторону бесплантно в хорошем качестве Описание: Безработный актер попадает в аварию, и его душа разлучается с телом. На том свете ангел в облике красотки в деловом костюме ... 10 10 8
Info! Золотая раздача, скачанное не засчитывается.
Торрент: Зарегистрирован [2021-09-02 17:51] · скачан: 103 раз
Статус: √ проверено
Размер: 4.52 GB
Как cкачать? Как скачать Любовь по ту сторону через торрент | UTorrent

% Раздел Тема Автор DL S | L
Фильмы 2019-2020 [DVDrip, WEB-DLRip, HDrip] (DUB, MVO) [ 1.46 GB ] Любовь по ту сторону / Faraway Eyes / Here After [2020 WEB-DLRip] bober100 Скачать
1 | 0

28-11-2019 20:33  

Отключить вcю реклaмy на сайте

    Дорогой пользователь! Огромная просьба, поблагодарите релизера, оцените раздачу и оставьте свои комментарий, если Вы скачали Любовь по ту сторону через торрент бесплатно!
    Комментировать посты могут только пользователи прошедшие не сложную регистрацию
    Показать сообщения:    

    Любовь по ту сторону через торрент
    Скачать бесплатно Любовь по ту сторону
    Любовь по ту сторону скачать торрент
    Любовь по ту сторону смотреть онлайн
    Cкачать фильм Любовь по ту сторону бесплатно
    Любовь по ту сторону скачать торрент в хорошем качестве
    Любовь по ту сторону смотреть онлайн бесплатно в хорошем качестве


    Вы не можете начинать темы
    Вы не можете отвечать на сообщения
    Вы не можете редактировать свои сообщения
    Вы не можете удалять свои сообщения
    Вы не можете голосовать в опросах
    Вы не можете прикреплять файлы к сообщениям
    Вы можете скачивать файлы