Всегда рабочее зеркало без VPN и Proxy просто перед .vidak.icu напиши любое слово или цифру, Пример http://dbqh.vidak.icu

MVO

MVO

1 сезон

1

1 сезон

iTunes

1 сезон

13

1 сезон

Deluxe

pack

Рекомендуем

Repack

30

ВАЖНО

RePack

MK11

RePack

jed

RePack

fifa19

RePack

RDR2

RePack

NEED FOR SPEED™ PAYBACK

Кинопоиск HD

6 сезон

 Острые козырьки 6 сезон

Все сериалы

все сериалы на PB.wtf

RePack

FAR CRY 5
  
Magnet ссылка

Любовь по ту сторону / Faraway Eyes (Гарри Гринбергер) [2020, Фэнтези, мелодрама, комедия, WEB-DLRip-AVC] DUB [iTunes] от MediaBit pb.wtf

Любовь по ту сторону через торрент pb.wtf

Размер: 2.35 GB | Добавлен: 11 мес. назад | Торрент скачан:64 раза
Смотреть онлайн Любовь по ту сторону | Скачать    Ребята, помогите собрать деньги на оплату серверов!!!

03-09-2021 06:40 Любовь по ту сторону Скачать торрент  


Любовь по ту сторону / Faraway Eyes
Информация о фильме:
Название: Любовь по ту сторону
Оригинальное название: Faraway Eyes
Год выхода: 2020
Жанр: Фэнтези, мелодрама, комедия
Режиссер: Гарри Гринбергер

В ролях: Кристина Риччи, Нора Арнезедер, Джеки Крус, Дженни Берлин, Майкл Рисполи, Энди Карл, Флоренция Лозаньо, Никки М. Джеймс, Синди Чунг, Элисса Миддлтон

Описание: Безработный актер попадает в аварию, и его душа разлучается с телом. На том свете ангел в облике красотки в деловом костюме говорит ему, что в рай его не пустят, пока тот не полюбит. Но каково это — выбирать возлюбленную среди… других призраков Нью-Йорка?



Страна: США
Студия: Dayenu Films
Продолжительность: 02:01:45
Перевод: Дублированный - iTunes



Информация о файле:
Кодек: AVC
Формат: MKV
Качество: WEB-DLRip-AVC
Видео: MPEG-4 AVC, 1024x390, 23.976 fps, 1991 kb/s
Аудио RU: AC3, 6 ch, 48 kHz, 384 kbps
Аудио EN: AC3, 6 ch, 48 kHz, 384 kbps

x264 info: frame I:1558 Avg QP:10.79 size: 75949
x264 info: frame P:43913 Avg QP:13.98 size: 22553
x264 info: frame B:129680 Avg QP:17.00 size: 5449
General
Unique ID : 182320373933394547804494734610004602469 (0x8929A0738A925C9CDB880C68A75A6E65)
Complete name : D:uTorrentРипы wolf1245Faraway.Eyes.2020.DUB.iTunes.WEB-DLRip-AVC.[=wolf1245.MediaBit=].mkv
Format : Matroska
Format version : Version 4
File size : 2.35 GiB
Duration : 2 h 1 min
Overall bit rate : 2 758 kb/s
Movie name : Faraway.Eyes.2020.DUB.iTunes.WEB-DLRip-AVC.[=wolf1245.MediaBit=]
Encoded date : UTC 2021-09-03 06:24:02
Writing application : mkvmerge v61.0.0 ('So') 64-bit
Writing library : libebml v1.4.2 + libmatroska v1.6.4
Video
ID : 1
Format : AVC
Format/Info : Advanced Video Codec
Format profile : [email protected]
Format settings : CABAC / 12 Ref Frames
Format settings, CABAC : Yes
Format settings, Reference frames : 12 frames
Codec ID : V_MPEG4/ISO/AVC
Duration : 2 h 1 min
Bit rate : 1 991 kb/s
Width : 1 024 pixels
Height : 390 pixels
Display aspect ratio : 2.615
Frame rate mode : Constant
Frame rate : 23.976 (24000/1001) FPS
Color space : YUV
Chroma subsampling : 4:2:0
Bit depth : 8 bits
Scan type : Progressive
Bits/(Pixel*Frame) : 0.208
Stream size : 1.69 GiB (72%)
Title : -=[wolf1245.MediaBit]=-
Writing library : x264 core 161 r3020 d198931
Encoding settings : cabac=1 / ref=12 / deblock=1:-2:-2 / analyse=0x3:0x133 / me=umh / subme=10 / psy=1 / psy_rd=1.03:0.05 / mixed_ref=1 / me_range=32 / chroma_me=1 / trellis=2 / 8x8dct=1 / cqm=0 / deadzone=21,11 / fast_pskip=1 / chroma_qp_offset=-3 / threads=10 / lookahead_threads=2 / sliced_threads=0 / nr=0 / decimate=1 / interlaced=0 / bluray_compat=0 / constrained_intra=0 / bframes=10 / b_pyramid=2 / b_adapt=2 / b_bias=0 / direct=3 / weightb=1 / open_gop=0 / weightp=2 / keyint=240 / keyint_min=24 / scenecut=40 / intra_refresh=0 / rc_lookahead=60 / rc=2pass / mbtree=1 / bitrate=1991 / ratetol=1.0 / qcomp=0.60 / qpmin=0 / qpmax=69 / qpstep=4 / cplxblur=20.0 / qblur=0.5 / vbv_maxrate=50000 / vbv_bufsize=62500 / nal_hrd=none / filler=0 / ip_ratio=1.40 / aq=3:0.80
Language : English
Default : Yes
Forced : No
Color range : Limited
Color primaries : BT.709
Transfer characteristics : BT.709
Matrix coefficients : BT.709
Audio #1
ID : 2
Format : AC-3
Format/Info : Audio Coding 3
Commercial name : Dolby Digital
Codec ID : A_AC3
Duration : 2 h 1 min
Bit rate mode : Constant
Bit rate : 384 kb/s
Channel(s) : 6 channels
Channel layout : L R C LFE Ls Rs
Sampling rate : 48.0 kHz
Frame rate : 31.250 FPS (1536 SPF)
Compression mode : Lossy
Stream size : 334 MiB (14%)
Title : DUB (iTunes)
Language : Russian
Service kind : Complete Main
Default : Yes
Forced : No
Audio #2
ID : 3
Format : AC-3
Format/Info : Audio Coding 3
Commercial name : Dolby Digital
Codec ID : A_AC3
Duration : 2 h 1 min
Bit rate mode : Constant
Bit rate : 384 kb/s
Channel(s) : 6 channels
Channel layout : L R C LFE Ls Rs
Sampling rate : 48.0 kHz
Frame rate : 31.250 FPS (1536 SPF)
Compression mode : Lossy
Stream size : 334 MiB (14%)
Title : Original
Language : English
Service kind : Complete Main
Default : No
Forced : No
Релиз от: &
Автор релиза:
pb.wtf



Скачать Любовь по ту сторону через торрент https://i2.imageban.ru/out/2021/09/02/e9c218ce1276dd16c07dd7cd27ffb633.png Скачать, смотреть онлайн Любовь по ту сторону бесплантно в хорошем качестве Описание: Безработный актер попадает в аварию, и его душа разлучается с телом. На том свете ангел в облике красотки в деловом костюме ... 10 10 3
Торрент: Зарегистрирован [2021-09-03 06:40] · скачан: 64 раз
Статус: √ проверено
Размер: 2.35 GB
Как cкачать? Как скачать Любовь по ту сторону через торрент | UTorrent

28-11-2019 20:33  

Отключить вcю реклaмy на сайте

03-09-2021 14:53 Любовь по ту сторону Скачать торрент  

Интересныйpb.wtf



04-09-2021 01:12 Любовь по ту сторону Скачать торрент  

kosrv1 писал(а):

Интересный

это вопрос или утверждение?pb.wtf



    Дорогой пользователь! Огромная просьба, поблагодарите релизера, оцените раздачу и оставьте свои комментарий, если Вы скачали Любовь по ту сторону через торрент бесплатно!
    Комментировать посты могут только пользователи прошедшие не сложную регистрацию
    Показать сообщения:    

    Любовь по ту сторону через торрент
    Скачать бесплатно Любовь по ту сторону
    Любовь по ту сторону скачать торрент
    Любовь по ту сторону смотреть онлайн
    Cкачать фильм Любовь по ту сторону бесплатно
    Любовь по ту сторону скачать торрент в хорошем качестве
    Любовь по ту сторону смотреть онлайн бесплатно в хорошем качестве


    Вы не можете начинать темы
    Вы не можете отвечать на сообщения
    Вы не можете редактировать свои сообщения
    Вы не можете удалять свои сообщения
    Вы не можете голосовать в опросах
    Вы не можете прикреплять файлы к сообщениям
    Вы можете скачивать файлы