>

5.6

iTunes

6.1

MVO

5.7

MVO

1

7.4

1 сезон

6.8

iTunes

7.2

1 сезон

13

6.7

1 сезон

8.3

RePack

30

Deluxe

pack

9.9

Лицензия

ВАЖНО

ИГРА 18+

pack

7.3

RePack

MK11

7.7

RePack

jed

7.8

RePack

fifa19

8.5

RePack

RDR2

RePack

NEED FOR SPEED™ PAYBACK

4 сезон

9 сезон

Бесстыжие 9 сезон

Все сериалы

все сериалы на PB.wtf

RePack

FAR CRY 5

Anonymous, доброй ночи, мы катастрофически не успеваем собрать деньги на оплату серверов, помогите нам пожалуйста 5,10,15р., для нас важна любая помощь . В качестве благодарности мы отключим Вам всю рекламу на сайте (укажите свой ник в строку Ваше имя)!

×
  
Magnet ссылка

U.D.O. (UDO) - Live in Bulgaria 2020: Pandemic Survival Show [2021, Heavy / Power Metal, Blu-ray, 1080p] pb.wtf

U.D.O. через торрент pb.wtf

Раздают: 1 [ 0 KB/s ]
Размер: 22.31 GB | Добавлен: 20 д. назад | Торрент скачан:5 раз
Смотреть онлайн U.D.O. | Скачать    Ребята, помогите собрать деньги на оплату серверов!!!

04-09-2021 11:54 U.D.O. Скачать торрент  


U.D.O. (UDO) - Live in Bulgaria 2020: Pandemic Survival Show



Год выпуска: 2021
Страна: Germany
Жанр:Heavy Metal
Directed By: Frank Supfle
Production Manager: Dirk Snijder
Продолжительность: 02:24:33 + 00:17:36 (бонусы)


Качество видео: Blu-ray
Контейнер: BDMV
Стандарт разрешения: 1080p
Видео кодек: H.264
Аудио кодек: PCM/ DTS
Видео: MPEG-4 AVC Video / 15725 kbps / 1080p / 23.976 fps / 16:9 / High Profile 4.1 /
Аудио #1: English / LPCM Audio / 2.0 / 48 kHz / 1536 kbps / 16-bit
Аудио #2: English / DTS-HD Master Audio / 5.1 / 48 kHz / 2676 kbps / 16-bit (DTS Core: 5.1 / 48 kHz / 1509 kbps / 16-bit)
Аудио #3: English / Dolby Digital Audio / 2.0 / 48 kHz / 192 kbps / DN -31dB (бонусы)



Новый "живой" альбом U.D.O. стал пятым в их дискографии. Концертник Live In Bulgaria записан в Болгарии на единственном состоявшемся в 2020 году концерте группы в римском амфитеатре города Пловдив 18 сентября прошлого года. Выступление прошло перед 2500 тысячами поклонников с полным соблюдением противоэпидемических мер. "Live In Bulgaria 2020 – Pandemic Survival" - это запись исторического шоу, сыгранное в это непростое время и потребовавшее немало усилий для его организации. В дополнение к сет-листу тура, посвященного альбому "Steelfactory" в программу этого специального выступления вошли песни, нечасто исполняемые живьем, а также к радости собравшейся публики несколько классических номеров ACCEPT.


1. Intro
2. Tongue Reaper
3. Make The Move
4. Midnight Mover
5. Wrong Side Of Midnight
6. Metal Machine
7. Independence Day
8. Rose In The Desert
9. Vendetta
10. Rising High
11. Prologue: The Great Unknown
12. In The Darkness
13. I Give As Good As I Get
14. Princess Of The Dawn
15. Timebomb
16. Drum Solo
17. Bass Solo
18. Hungry And Angry
19. One Heart One Soul
20. Man And Machine
21. Animal House
22. They Want War
23. Metal Heart
24. Fast As Shark
25. Balls To The Wall
26. Outro (Stillness Of Time)

Бонус:

Behind the scenes [00:07:51]
Photo gallery [00:09:45]
Recorded sepm. 18,2020 In The Beatiful Ancient "Antique Theatre" Plovdiv/ Bulgaria
Udo Dirkschneider - Lead Vocals
Andrey Smirnov - Guitar
Sven Dirkschneider - Drums
Dee Dammers - Guitar
Tilen Hudrap - Bass

Disc Title: UDO LIVE IN BULGARIA
Disc Size: 23 958 818 315 bytes
Protection: AACS
BD-Java: No
BDInfo: 0.5.8

Notes:

BDINFO HOME:
Cinema Squid

INCLUDES FORUMS REPORT FOR:
AVS Forum Blu-ray Audio and Video Specifications Thread

********************
PLAYLIST: 00002.MPLS
********************

<--- BEGIN FORUMS PASTE --->

Код:

Total   Video
Title                                                           Codec   Length  Movie Size      Disc Size       Bitrate Bitrate Main Audio Track                          Secondary Audio Track
-----                                                           ------  ------- --------------  --------------  ------- ------- ------------------                        ---------------------
00002.MPLS                                                      AVC     2:24:33 23 152 708 800  23 958 818 315  21,35   0,00    LPCM 2.0 1536Kbps (48kHz/16-bit)          DTS-HD Master 5.1 (48kHz/16-bit)

Код:

DISC INFO:

Disc Title:     UDO LIVE IN BULGARIA
Disc Size:      23 958 818 315 bytes
Protection:     AACS
BD-Java:        No
BDInfo:         0.5.8

PLAYLIST REPORT:

Name:                   00002.MPLS
Length:                 2:24:33.498 (h:m:s.ms)
Size:                   23 152 708 800 bytes
Total Bitrate:          21,35 Mbps

VIDEO:

Codec                   Bitrate             Description
-----                   -------             -----------
MPEG-4 AVC Video        0 kbps              1080p / 23,976 fps / 16:9 / High Profile 4.1

AUDIO:

Codec                           Language        Bitrate         Description
-----                           --------        -------         -----------
LPCM Audio                      English         1536 kbps       2.0 / 48 kHz / 1536 kbps / 16-bit
DTS-HD Master Audio             English         0 kbps          5.1 / 48 kHz / 16-bit (DTS Core: 5.1 / 48 kHz / 1509 kbps / 16-bit)

FILES:

Name            Time In         Length          Size            Total Bitrate
----            -------         ------          ----            -------------
00003.M2TS      0:00:00.000     2:24:33.498     23 152 708 800  0

CHAPTERS:

Number          Time In         Length          Avg Video Rate  Max 1-Sec Rate  Max 1-Sec Time  Max 5-Sec Rate  Max 5-Sec Time  Max 10Sec Rate  Max 10Sec Time  Avg Frame Size  Max Frame Size  Max Frame Time
------          -------         ------          --------------  --------------  --------------  --------------  --------------  --------------  --------------  --------------  --------------  --------------
1               0:00:00.000     0:01:56.699     16 212 kbps     40 364 kbps     00:00:03.889    32 609 kbps     00:00:03.096    28 198 kbps     00:00:03.096    84 491 bytes    697 310 bytes   00:00:15.890
2               0:01:56.699     0:04:31.437     16 412 kbps     33 507 kbps     00:02:40.827    26 981 kbps     00:02:38.950    24 317 kbps     00:02:38.950    85 562 bytes    721 438 bytes   00:02:20.807
3               0:06:28.137     0:05:36.461     15 806 kbps     32 673 kbps     00:09:41.622    28 483 kbps     00:09:38.035    22 601 kbps     00:09:37.243    82 403 bytes    466 041 bytes   00:08:31.761
4               0:12:04.598     0:03:30.335     15 836 kbps     31 241 kbps     00:13:15.878    21 817 kbps     00:12:09.478    20 300 kbps     00:13:06.952    82 562 bytes    495 809 bytes   00:12:09.562
5               0:15:34.934     0:04:32.689     16 306 kbps     30 326 kbps     00:18:25.395    26 590 kbps     00:20:02.451    20 731 kbps     00:18:40.077    85 012 bytes    516 087 bytes   00:20:02.492
6               0:20:07.623     0:05:16.024     16 126 kbps     34 566 kbps     00:24:10.240    24 967 kbps     00:23:37.332    23 483 kbps     00:25:00.248    84 075 bytes    470 449 bytes   00:25:22.020
7               0:25:23.647     0:07:13.307     15 258 kbps     30 730 kbps     00:32:15.558    28 371 kbps     00:32:13.806    21 775 kbps     00:32:09.177    79 550 bytes    625 984 bytes   00:25:54.552
8               0:32:36.955     0:06:12.789     16 011 kbps     31 495 kbps     00:35:19.325    27 903 kbps     00:35:17.323    24 474 kbps     00:35:16.989    83 473 bytes    518 481 bytes   00:33:21.541
9               0:38:49.744     0:04:34.857     17 112 kbps     34 201 kbps     00:39:10.598    26 710 kbps     00:39:08.262    23 537 kbps     00:39:03.424    89 214 bytes    434 920 bytes   00:39:11.015
10              0:43:24.602     0:04:10.792     16 469 kbps     29 534 kbps     00:44:48.811    26 437 kbps     00:44:46.058    23 215 kbps     00:44:45.349    85 862 bytes    331 483 bytes   00:44:25.120
11              0:47:35.394     0:02:21.307     12 615 kbps     20 055 kbps     00:48:03.046    17 014 kbps     00:49:45.107    16 094 kbps     00:49:39.893    65 771 bytes    381 717 bytes   00:49:36.932
12              0:49:56.702     0:05:10.476     15 799 kbps     34 022 kbps     00:52:26.560    25 734 kbps     00:52:23.181    23 150 kbps     00:53:53.688    82 369 bytes    703 272 bytes   00:53:57.234
13              0:55:07.178     0:04:59.465     16 136 kbps     30 865 kbps     00:56:03.693    24 081 kbps     00:56:39.813    21 344 kbps     00:55:54.893    84 127 bytes    422 964 bytes   00:55:38.752
14              1:00:06.644     0:12:00.636     16 281 kbps     31 066 kbps     01:08:08.209    26 912 kbps     01:06:59.640    24 309 kbps     01:06:59.015    84 879 bytes    695 086 bytes   01:00:59.697
15              1:12:07.281     0:04:35.191     18 697 kbps     32 691 kbps     01:12:32.014    26 932 kbps     01:12:21.754    25 110 kbps     01:16:24.788    97 477 bytes    424 672 bytes   01:16:00.973
16              1:16:42.472     0:04:07.413     13 069 kbps     21 962 kbps     01:20:39.918    18 001 kbps     01:20:25.445    17 022 kbps     01:20:38.458    68 137 bytes    499 082 bytes   01:19:47.699
17              1:20:49.886     0:03:42.055     14 508 kbps     30 646 kbps     01:24:28.730    22 412 kbps     01:24:26.644    19 994 kbps     01:23:56.281    75 636 bytes    729 368 bytes   01:24:02.620
18              1:24:31.941     0:04:35.316     17 085 kbps     34 239 kbps     01:24:48.500    24 816 kbps     01:28:57.498    23 634 kbps     01:24:33.818    89 072 bytes    744 222 bytes   01:28:56.039
19              1:29:07.258     0:07:30.658     17 109 kbps     30 298 kbps     01:31:38.034    27 026 kbps     01:35:06.242    26 286 kbps     01:35:05.991    89 200 bytes    689 157 bytes   01:35:35.896
20              1:36:37.917     0:06:52.829     14 422 kbps     34 574 kbps     01:42:10.874    28 201 kbps     01:42:27.599    25 927 kbps     01:42:49.913    75 191 bytes    643 745 bytes   01:42:32.563
21              1:43:30.746     0:03:58.404     15 510 kbps     32 476 kbps     01:46:52.072    24 398 kbps     01:46:48.443    20 500 kbps     01:46:46.483    80 861 bytes    429 239 bytes   01:46:00.270
22              1:47:29.151     0:06:43.611     17 266 kbps     34 473 kbps     01:53:51.908    31 489 kbps     01:53:47.779    30 922 kbps     01:53:43.274    90 018 bytes    827 048 bytes   01:53:57.705
23              1:54:12.762     0:11:04.914     15 942 kbps     37 077 kbps     02:00:44.028    31 450 kbps     02:01:33.619    30 512 kbps     02:01:29.156    83 114 bytes    793 888 bytes   02:03:00.831
24              2:05:17.676     0:05:38.296     16 759 kbps     30 950 kbps     02:06:16.527    27 107 kbps     02:06:13.524    24 287 kbps     02:09:54.912    87 373 bytes    821 181 bytes   02:05:27.520
25              2:10:55.973     0:10:06.731     15 539 kbps     33 023 kbps     02:20:26.543    28 041 kbps     02:20:38.138    25 409 kbps     02:20:35.802    81 012 bytes    512 467 bytes   02:13:29.084
26              2:21:02.704     0:03:30.793     4 046 kbps      23 615 kbps     02:21:29.314    19 765 kbps     02:21:25.727    17 109 kbps     02:21:24.184    21 105 bytes    465 386 bytes   02:21:25.768

STREAM DIAGNOSTICS:

File            PID             Type            Codec           Language                Seconds                 Bitrate                 Bytes           Packets
----            ---             ----            -----           --------                --------------          --------------          -------------   -----
00003.M2TS      4113 (0x1011)   0x1B            AVC                                     8673,415                15 725                  17 048 698 331  92 779 269
00003.M2TS      4352 (0x1100)   0x80            LPCM            eng (English)           8673,415                1 542                   1 672 250 448   10 408 198
00003.M2TS      4353 (0x1101)   0x86            DTS-HD MA       eng (English)           8673,415                2 676                   2 900 757 172   17 110 488

<---- END FORUMS PASTE ---->

QUICK SUMMARY:

Disc Title: UDO LIVE IN BULGARIA
Disc Size: 23 958 818 315 bytes
Protection: AACS
BD-Java: No
Playlist: 00002.MPLS
Size: 23 152 708 800 bytes
Length: 2:24:33.498
Total Bitrate: 21,35 Mbps
Video: MPEG-4 AVC Video / 0 kbps / 1080p / 23,976 fps / 16:9 / High Profile 4.1
Audio: English / LPCM Audio / 2.0 / 48 kHz / 1536 kbps / 16-bit
Audio: English / DTS-HD Master Audio / 5.1 / 48 kHz / 16-bit (DTS Core: 5.1 / 48 kHz / 1509 kbps / 16-bit)

********************
PLAYLIST: 00003.MPLS
********************

<--- BEGIN FORUMS PASTE --->

Код:

Total   Video
Title                                                           Codec   Length  Movie Size      Disc Size       Bitrate Bitrate Main Audio Track                          Secondary Audio Track
-----                                                           ------  ------- --------------  --------------  ------- ------- ------------------                        ---------------------
00003.MPLS                                                      AVC     0:07:51 616 949 760     23 958 818 315  10,47   0,00    DD AC3 2.0 192Kbps

Код:

DISC INFO:

Disc Title:     UDO LIVE IN BULGARIA
Disc Size:      23 958 818 315 bytes
Protection:     AACS
BD-Java:        No
BDInfo:         0.5.8

PLAYLIST REPORT:

Name:                   00003.MPLS
Length:                 0:07:51.304 (h:m:s.ms)
Size:                   616 949 760 bytes
Total Bitrate:          10,47 Mbps

VIDEO:

Codec                   Bitrate             Description
-----                   -------             -----------
MPEG-4 AVC Video        0 kbps              1080p / 23,976 fps / 16:9 / High Profile 4.1

AUDIO:

Codec                           Language        Bitrate         Description
-----                           --------        -------         -----------
Dolby Digital Audio             English         192 kbps        2.0 / 48 kHz / 192 kbps

FILES:

Name            Time In         Length          Size            Total Bitrate
----            -------         ------          ----            -------------
00004.M2TS      0:00:00.000     0:07:51.304     616 949 760     0

CHAPTERS:

Number          Time In         Length          Avg Video Rate  Max 1-Sec Rate  Max 1-Sec Time  Max 5-Sec Rate  Max 5-Sec Time  Max 10Sec Rate  Max 10Sec Time  Avg Frame Size  Max Frame Size  Max Frame Time
------          -------         ------          --------------  --------------  --------------  --------------  --------------  --------------  --------------  --------------  --------------  --------------
1               0:00:00.000     0:07:51.304     9 736 kbps      29 751 kbps     00:00:00.052    18 059 kbps     00:06:16.594    16 276 kbps     00:06:14.050    50 761 bytes    397 224 bytes   00:00:16.057

STREAM DIAGNOSTICS:

File            PID             Type            Codec           Language                Seconds                 Bitrate                 Bytes           Packets
----            ---             ----            -----           --------                --------------          --------------          -------------   -----
00004.M2TS      4113 (0x1011)   0x1B            AVC                                     471,221                 9 742                   573 803 110     3 125 279
00004.M2TS      4352 (0x1100)   0x81            AC3             eng (English)           471,221                 192                     11 311 872      73 645

<---- END FORUMS PASTE ---->

QUICK SUMMARY:

Disc Title: UDO LIVE IN BULGARIA
Disc Size: 23 958 818 315 bytes
Protection: AACS
BD-Java: No
Playlist: 00003.MPLS
Size: 616 949 760 bytes
Length: 0:07:51.304
Total Bitrate: 10,47 Mbps
Video: MPEG-4 AVC Video / 0 kbps / 1080p / 23,976 fps / 16:9 / High Profile 4.1
Audio: English / Dolby Digital Audio / 2.0 / 48 kHz / 192 kbps

********************
PLAYLIST: 00008.MPLS
********************

<--- BEGIN FORUMS PASTE --->

Код:

Total   Video
Title                                                           Codec   Length  Movie Size      Disc Size       Bitrate Bitrate Main Audio Track                          Secondary Audio Track
-----                                                           ------  ------- --------------  --------------  ------- ------- ------------------                        ---------------------
00008.MPLS                                                      AVC     0:06:45 6 696 960       23 958 818 315  0,13    0,08

Код:

DISC INFO:

Disc Title:     UDO LIVE IN BULGARIA
Disc Size:      23 958 818 315 bytes
Protection:     AACS
BD-Java:        No
BDInfo:         0.5.8

PLAYLIST REPORT:

Name:                   00008.MPLS
Length:                 0:06:45.404 (h:m:s.ms)
Size:                   6 696 960 bytes
Total Bitrate:          0,13 Mbps

VIDEO:

Codec                   Bitrate             Description
-----                   -------             -----------
MPEG-4 AVC Video        76 kbps             1080p / 23,976 fps / 16:9 / High Profile 4.1

FILES:

Name            Time In         Length          Size            Total Bitrate
----            -------         ------          ----            -------------
00009.M2TS      0:00:00.000     0:06:45.404     6 696 960       131

CHAPTERS:

Number          Time In         Length          Avg Video Rate  Max 1-Sec Rate  Max 1-Sec Time  Max 5-Sec Rate  Max 5-Sec Time  Max 10Sec Rate  Max 10Sec Time  Avg Frame Size  Max Frame Size  Max Frame Time
------          -------         ------          --------------  --------------  --------------  --------------  --------------  --------------  --------------  --------------  --------------  --------------
1               0:00:00.000     0:00:05.004     148 kbps        80 kbps         00:00:04.963    80 kbps         00:00:04.963    0 kbps          00:00:00.000    46 442 bytes    50 148 bytes    00:00:09.968
2               0:00:05.004     0:00:05.004     67 kbps         67 kbps         00:00:09.968    67 kbps         00:00:09.968    0 kbps          00:00:00.000    41 972 bytes    41 972 bytes    00:00:14.973
3               0:00:10.009     0:00:05.004     86 kbps         86 kbps         00:00:14.973    86 kbps         00:00:14.973    0 kbps          00:00:00.000    53 796 bytes    53 796 bytes    00:00:19.978
4               0:00:15.014     0:00:05.004     64 kbps         64 kbps         00:00:19.978    64 kbps         00:00:19.978    0 kbps          00:00:00.000    40 093 bytes    40 093 bytes    00:00:24.983
5               0:00:20.019     0:00:05.004     56 kbps         56 kbps         00:00:24.983    56 kbps         00:00:24.983    0 kbps          00:00:00.000    34 952 bytes    34 952 bytes    00:00:29.988
6               0:00:25.024     0:00:05.004     58 kbps         58 kbps         00:00:29.988    58 kbps         00:00:29.988    0 kbps          00:00:00.000    36 115 bytes    36 115 bytes    00:00:34.993
7               0:00:30.029     0:00:05.004     64 kbps         64 kbps         00:00:34.993    64 kbps         00:00:34.993    0 kbps          00:00:00.000    39 940 bytes    39 940 bytes    00:00:39.998
8               0:00:35.034     0:00:05.004     62 kbps         62 kbps         00:00:39.998    62 kbps         00:00:39.998    0 kbps          00:00:00.000    38 714 bytes    38 714 bytes    00:00:45.003
9               0:00:40.039     0:00:05.004     75 kbps         75 kbps         00:00:45.003    75 kbps         00:00:45.003    0 kbps          00:00:00.000    46 721 bytes    46 721 bytes    00:00:50.008
10              0:00:45.044     0:00:05.004     92 kbps         92 kbps         00:00:50.008    92 kbps         00:00:50.008    0 kbps          00:00:00.000    57 338 bytes    57 338 bytes    00:00:55.013
11              0:00:50.049     0:00:05.004     68 kbps         68 kbps         00:00:55.013    68 kbps         00:00:55.013    0 kbps          00:00:00.000    42 462 bytes    42 462 bytes    00:01:00.018
12              0:00:55.054     0:00:05.004     56 kbps         56 kbps         00:01:00.018    56 kbps         00:01:00.018    0 kbps          00:00:00.000    35 084 bytes    35 084 bytes    00:01:05.023
13              0:01:00.059     0:00:05.005     62 kbps         62 kbps         00:01:05.023    62 kbps         00:01:05.023    0 kbps          00:00:00.000    38 880 bytes    38 880 bytes    00:01:10.028
14              0:01:05.065     0:00:05.004     75 kbps         75 kbps         00:01:10.028    75 kbps         00:01:10.028    0 kbps          00:00:00.000    46 940 bytes    46 940 bytes    00:01:15.033
15              0:01:10.070     0:00:05.004     65 kbps         65 kbps         00:01:15.033    65 kbps         00:01:15.033    0 kbps          00:00:00.000    40 441 bytes    40 441 bytes    00:01:20.038
16              0:01:15.075     0:00:05.004     68 kbps         68 kbps         00:01:20.038    68 kbps         00:01:20.038    0 kbps          00:00:00.000    42 373 bytes    42 373 bytes    00:01:25.043
17              0:01:20.080     0:00:05.004     102 kbps        102 kbps        00:01:25.043    102 kbps        00:01:25.043    0 kbps          00:00:00.000    64 121 bytes    64 121 bytes    00:01:30.048
18              0:01:25.085     0:00:05.004     71 kbps         71 kbps         00:01:30.048    71 kbps         00:01:30.048    0 kbps          00:00:00.000    44 632 bytes    44 632 bytes    00:01:35.053
19              0:01:30.090     0:00:05.004     72 kbps         72 kbps         00:01:35.053    72 kbps         00:01:35.053    0 kbps          00:00:00.000    44 956 bytes    44 956 bytes    00:01:40.058
20              0:01:35.095     0:00:05.004     92 kbps         92 kbps         00:01:40.058    92 kbps         00:01:40.058    0 kbps          00:00:00.000    57 380 bytes    57 380 bytes    00:01:45.063
21              0:01:40.100     0:00:05.004     80 kbps         80 kbps         00:01:45.063    80 kbps         00:01:45.063    0 kbps          00:00:00.000    50 232 bytes    50 232 bytes    00:01:50.068
22              0:01:45.105     0:00:05.004     56 kbps         56 kbps         00:01:50.068    56 kbps         00:01:50.068    0 kbps          00:00:00.000    34 895 bytes    34 895 bytes    00:01:55.073
23              0:01:50.110     0:00:05.004     79 kbps         79 kbps         00:01:55.073    79 kbps         00:01:55.073    0 kbps          00:00:00.000    49 415 bytes    49 415 bytes    00:02:00.078
24              0:01:55.115     0:00:05.004     47 kbps         47 kbps         00:02:00.078    47 kbps         00:02:00.078    0 kbps          00:00:00.000    29 467 bytes    29 467 bytes    00:02:05.083
25              0:02:00.120     0:00:05.004     63 kbps         63 kbps         00:02:05.083    63 kbps         00:02:05.083    0 kbps          00:00:00.000    39 576 bytes    39 576 bytes    00:02:10.088
26              0:02:05.125     0:00:05.004     58 kbps         58 kbps         00:02:10.088    58 kbps         00:02:10.088    0 kbps          00:00:00.000    36 546 bytes    36 546 bytes    00:02:15.093
27              0:02:10.130     0:00:05.004     80 kbps         80 kbps         00:02:15.093    80 kbps         00:02:15.093    0 kbps          00:00:00.000    50 042 bytes    50 042 bytes    00:02:20.098
28              0:02:15.135     0:00:05.004     57 kbps         57 kbps         00:02:20.098    57 kbps         00:02:20.098    0 kbps          00:00:00.000    35 913 bytes    35 913 bytes    00:02:25.103
29              0:02:20.139     0:00:05.004     49 kbps         49 kbps         00:02:25.103    49 kbps         00:02:25.103    0 kbps          00:00:00.000    30 733 bytes    30 733 bytes    00:02:30.108
30              0:02:25.144     0:00:05.004     55 kbps         55 kbps         00:02:30.108    55 kbps         00:02:30.108    0 kbps          00:00:00.000    34 346 bytes    34 346 bytes    00:02:35.113
31              0:02:30.149     0:00:05.004     70 kbps         70 kbps         00:02:35.113    70 kbps         00:02:35.113    0 kbps          00:00:00.000    43 631 bytes    43 631 bytes    00:02:40.118
32              0:02:35.154     0:00:05.004     63 kbps         63 kbps         00:02:40.118    63 kbps         00:02:40.118    0 kbps          00:00:00.000    39 160 bytes    39 160 bytes    00:02:45.123
33              0:02:40.159     0:00:05.004     47 kbps         47 kbps         00:02:45.123    47 kbps         00:02:45.123    0 kbps          00:00:00.000    29 329 bytes    29 329 bytes    00:02:50.128
34              0:02:45.164     0:00:05.004     96 kbps         96 kbps         00:02:50.128    96 kbps         00:02:50.128    0 kbps          00:00:00.000    60 300 bytes    60 300 bytes    00:02:55.133
35              0:02:50.169     0:00:05.004     76 kbps         76 kbps         00:02:55.133    76 kbps         00:02:55.133    0 kbps          00:00:00.000    47 351 bytes    47 351 bytes    00:03:00.138
36              0:02:55.174     0:00:05.004     53 kbps         53 kbps         00:03:00.138    53 kbps         00:03:00.138    0 kbps          00:00:00.000    33 342 bytes    33 342 bytes    00:03:05.143
37              0:03:00.179     0:00:05.004     67 kbps         67 kbps         00:03:05.143    67 kbps         00:03:05.143    0 kbps          00:00:00.000    41 944 bytes    41 944 bytes    00:03:10.148
38              0:03:05.184     0:00:05.005     76 kbps         76 kbps         00:03:10.148    76 kbps         00:03:10.148    0 kbps          00:00:00.000    47 797 bytes    47 797 bytes    00:03:15.153
39              0:03:10.190     0:00:05.004     72 kbps         72 kbps         00:03:15.153    72 kbps         00:03:15.153    0 kbps          00:00:00.000    45 001 bytes    45 001 bytes    00:03:20.158
40              0:03:15.195     0:00:05.004     90 kbps         90 kbps         00:03:20.158    90 kbps         00:03:20.158    0 kbps          00:00:00.000    56 372 bytes    56 372 bytes    00:03:25.163
41              0:03:20.200     0:00:05.004     92 kbps         92 kbps         00:03:25.163    92 kbps         00:03:25.163    0 kbps          00:00:00.000    57 336 bytes    57 336 bytes    00:03:30.168
42              0:03:25.205     0:00:05.004     77 kbps         77 kbps         00:03:30.168    77 kbps         00:03:30.168    0 kbps          00:00:00.000    48 098 bytes    48 098 bytes    00:03:35.173
43              0:03:30.210     0:00:05.004     82 kbps         82 kbps         00:03:35.173    82 kbps         00:03:35.173    0 kbps          00:00:00.000    51 396 bytes    51 396 bytes    00:03:40.178
44              0:03:35.215     0:00:05.004     71 kbps         71 kbps         00:03:40.178    71 kbps         00:03:40.178    0 kbps          00:00:00.000    44 181 bytes    44 181 bytes    00:03:45.183
45              0:03:40.220     0:00:05.004     86 kbps         86 kbps         00:03:45.183    86 kbps         00:03:45.183    0 kbps          00:00:00.000    53 943 bytes    53 943 bytes    00:03:50.188
46              0:03:45.225     0:00:05.004     113 kbps        113 kbps        00:03:50.188    113 kbps        00:03:50.188    0 kbps          00:00:00.000    70 933 bytes    70 933 bytes    00:03:55.193
47              0:03:50.230     0:00:05.004     68 kbps         68 kbps         00:03:55.193    68 kbps         00:03:55.193    0 kbps          00:00:00.000    42 614 bytes    42 614 bytes    00:04:00.198
48              0:03:55.235     0:00:05.004     88 kbps         88 kbps         00:04:00.198    88 kbps         00:04:00.198    0 kbps          00:00:00.000    54 749 bytes    54 749 bytes    00:04:05.203
49              0:04:00.240     0:00:05.004     114 kbps        114 kbps        00:04:05.203    114 kbps        00:04:05.203    0 kbps          00:00:00.000    71 047 bytes    71 047 bytes    00:04:10.208
50              0:04:05.245     0:00:05.004     80 kbps         80 kbps         00:04:10.208    80 kbps         00:04:10.208    0 kbps          00:00:00.000    49 842 bytes    49 842 bytes    00:04:15.213
51              0:04:10.250     0:00:05.004     89 kbps         89 kbps         00:04:15.213    89 kbps         00:04:15.213    0 kbps          00:00:00.000    55 468 bytes    55 468 bytes    00:04:20.218
52              0:04:15.255     0:00:05.004     99 kbps         99 kbps         00:04:20.218    99 kbps         00:04:20.218    0 kbps          00:00:00.000    62 055 bytes    62 055 bytes    00:04:25.223
53              0:04:20.260     0:00:05.004     83 kbps         83 kbps         00:04:25.223    83 kbps         00:04:25.223    0 kbps          00:00:00.000    51 722 bytes    51 722 bytes    00:04:30.228
54              0:04:25.265     0:00:05.004     78 kbps         78 kbps         00:04:30.228    78 kbps         00:04:30.228    0 kbps          00:00:00.000    48 701 bytes    48 701 bytes    00:04:35.233
55              0:04:30.270     0:00:05.004     69 kbps         69 kbps         00:04:35.233    69 kbps         00:04:35.233    0 kbps          00:00:00.000    42 970 bytes    42 970 bytes    00:04:40.238
56              0:04:35.275     0:00:05.004     73 kbps         73 kbps         00:04:40.238    73 kbps         00:04:40.238    0 kbps          00:00:00.000    45 769 bytes    45 769 bytes    00:04:45.243
57              0:04:40.279     0:00:05.004     65 kbps         65 kbps         00:04:45.243    65 kbps         00:04:45.243    0 kbps          00:00:00.000    40 944 bytes    40 944 bytes    00:04:50.248
58              0:04:45.284     0:00:05.004     77 kbps         77 kbps         00:04:50.248    77 kbps         00:04:50.248    0 kbps          00:00:00.000    47 869 bytes    47 869 bytes    00:04:55.253
59              0:04:50.289     0:00:05.004     87 kbps         87 kbps         00:04:55.253    87 kbps         00:04:55.253    0 kbps          00:00:00.000    54 434 bytes    54 434 bytes    00:05:00.258
60              0:04:55.294     0:00:05.004     97 kbps         97 kbps         00:05:00.258    97 kbps         00:05:00.258    0 kbps          00:00:00.000    60 673 bytes    60 673 bytes    00:05:05.263
61              0:05:00.299     0:00:05.004     70 kbps         70 kbps         00:05:05.263    70 kbps         00:05:05.263    0 kbps          00:00:00.000    43 734 bytes    43 734 bytes    00:05:10.268
62              0:05:05.304     0:00:05.004     71 kbps         71 kbps         00:05:10.268    71 kbps         00:05:10.268    0 kbps          00:00:00.000    44 623 bytes    44 623 bytes    00:05:15.273
63              0:05:10.309     0:00:05.005     80 kbps         80 kbps         00:05:15.273    80 kbps         00:05:15.273    0 kbps          00:00:00.000    49 920 bytes    49 920 bytes    00:05:20.278
64              0:05:15.315     0:00:05.004     69 kbps         69 kbps         00:05:20.278    69 kbps         00:05:20.278    0 kbps          00:00:00.000    43 147 bytes    43 147 bytes    00:05:25.283
65              0:05:20.320     0:00:05.004     83 kbps         83 kbps         00:05:25.283    83 kbps         00:05:25.283    0 kbps          00:00:00.000    52 039 bytes    52 039 bytes    00:05:30.288
66              0:05:25.325     0:00:05.004     76 kbps         76 kbps         00:05:30.288    76 kbps         00:05:30.288    0 kbps          00:00:00.000    47 362 bytes    47 362 bytes    00:05:35.293
67              0:05:30.330     0:00:05.004     88 kbps         88 kbps         00:05:35.293    88 kbps         00:05:35.293    0 kbps          00:00:00.000    55 315 bytes    55 315 bytes    00:05:40.298
68              0:05:35.335     0:00:05.004     88 kbps         88 kbps         00:05:40.298    88 kbps         00:05:40.298    0 kbps          00:00:00.000    55 303 bytes    55 303 bytes    00:05:45.303
69              0:05:40.340     0:00:05.004     80 kbps         80 kbps         00:05:45.303    80 kbps         00:05:45.303    0 kbps          00:00:00.000    50 084 bytes    50 084 bytes    00:05:50.308
70              0:05:45.345     0:00:05.004     85 kbps         85 kbps         00:05:50.308    85 kbps         00:05:50.308    0 kbps          00:00:00.000    53 375 bytes    53 375 bytes    00:05:55.313
71              0:05:50.350     0:00:05.004     80 kbps         80 kbps         00:05:55.313    80 kbps         00:05:55.313    0 kbps          00:00:00.000    49 766 bytes    49 766 bytes    00:06:00.318
72              0:05:55.355     0:00:05.004     74 kbps         74 kbps         00:06:00.318    74 kbps         00:06:00.318    0 kbps          00:00:00.000    46 366 bytes    46 366 bytes    00:06:05.323
73              0:06:00.360     0:00:05.004     85 kbps         85 kbps         00:06:05.323    85 kbps         00:06:05.323    0 kbps          00:00:00.000    53 270 bytes    53 270 bytes    00:06:10.328
74              0:06:05.365     0:00:05.004     70 kbps         70 kbps         00:06:10.328    70 kbps         00:06:10.328    0 kbps          00:00:00.000    43 663 bytes    43 663 bytes    00:06:15.333
75              0:06:10.370     0:00:05.004     77 kbps         77 kbps         00:06:15.333    77 kbps         00:06:15.333    0 kbps          00:00:00.000    48 002 bytes    48 002 bytes    00:06:20.338
76              0:06:15.375     0:00:05.004     82 kbps         82 kbps         00:06:20.338    82 kbps         00:06:20.338    0 kbps          00:00:00.000    51 326 bytes    51 326 bytes    00:06:25.343
77              0:06:20.380     0:00:05.004     93 kbps         93 kbps         00:06:25.343    93 kbps         00:06:25.343    0 kbps          00:00:00.000    58 474 bytes    58 474 bytes    00:06:30.348
78              0:06:25.385     0:00:05.004     72 kbps         72 kbps         00:06:30.348    72 kbps         00:06:30.348    0 kbps          00:00:00.000    45 123 bytes    45 123 bytes    00:06:35.353
79              0:06:30.390     0:00:05.004     100 kbps        100 kbps        00:06:35.353    100 kbps        00:06:35.353    0 kbps          00:00:00.000    62 449 bytes    62 449 bytes    00:06:40.358
80              0:06:35.395     0:00:05.004     107 kbps        108 kbps        00:06:40.358    0 kbps          00:00:00.000    0 kbps          00:00:00.000    67 052 bytes    67 052 bytes    00:06:45.321
81              0:06:40.400     0:00:05.004     107 kbps        0 kbps          00:00:00.000    0 kbps          00:00:00.000    0 kbps          00:00:00.000    67 052 bytes    67 052 bytes    00:06:45.363

STREAM DIAGNOSTICS:

File            PID             Type            Codec           Language                Seconds                 Bitrate                 Bytes           Packets
----            ---             ----            -----           --------                --------------          --------------          -------------   -----
00009.M2TS      4113 (0x1011)   0x1B            AVC                                     400,358                 78                      3 917 375       21 338

<---- END FORUMS PASTE ---->

QUICK SUMMARY:

Disc Title: UDO LIVE IN BULGARIA
Disc Size: 23 958 818 315 bytes
Protection: AACS
BD-Java: No
Playlist: 00008.MPLS
Size: 6 696 960 bytes
Length: 0:06:45.404
Total Bitrate: 0,13 Mbps
Video: MPEG-4 AVC Video / 76 kbps / 1080p / 23,976 fps / 16:9 / High Profile 4.1

********************
PLAYLIST: 00007.MPLS
********************

<--- BEGIN FORUMS PASTE --->

Код:

Total   Video
Title                                                           Codec   Length  Movie Size      Disc Size       Bitrate Bitrate Main Audio Track                          Secondary Audio Track
-----                                                           ------  ------- --------------  --------------  ------- ------- ------------------                        ---------------------
00007.MPLS                                                      AVC     0:03:00 2 955 264       23 958 818 315  0,13    0,07

Код:

DISC INFO:

Disc Title:     UDO LIVE IN BULGARIA
Disc Size:      23 958 818 315 bytes
Protection:     AACS
BD-Java:        No
BDInfo:         0.5.8

PLAYLIST REPORT:

Name:                   00007.MPLS
Length:                 0:03:00.179 (h:m:s.ms)
Size:                   2 955 264 bytes
Total Bitrate:          0,13 Mbps

VIDEO:

Codec                   Bitrate             Description
-----                   -------             -----------
MPEG-4 AVC Video        74 kbps             1080p / 23,976 fps / 16:9 / High Profile 4.1

FILES:

Name            Time In         Length          Size            Total Bitrate
----            -------         ------          ----            -------------
00008.M2TS      0:00:00.000     0:03:00.179     2 955 264       128

CHAPTERS:

Number          Time In         Length          Avg Video Rate  Max 1-Sec Rate  Max 1-Sec Time  Max 5-Sec Rate  Max 5-Sec Time  Max 10Sec Rate  Max 10Sec Time  Avg Frame Size  Max Frame Size  Max Frame Time
------          -------         ------          --------------  --------------  --------------  --------------  --------------  --------------  --------------  --------------  --------------  --------------
1               0:00:00.000     0:00:05.004     197 kbps        98 kbps         00:00:04.963    98 kbps         00:00:04.963    0 kbps          00:00:00.000    61 476 bytes    61 510 bytes    00:00:09.968
2               0:00:05.004     0:00:05.004     76 kbps         76 kbps         00:00:09.968    76 kbps         00:00:09.968    0 kbps          00:00:00.000    47 673 bytes    47 673 bytes    00:00:14.973
3               0:00:10.009     0:00:05.004     94 kbps         94 kbps         00:00:14.973    94 kbps         00:00:14.973    0 kbps          00:00:00.000    58 732 bytes    58 732 bytes    00:00:19.978
4               0:00:15.014     0:00:05.004     74 kbps         74 kbps         00:00:19.978    74 kbps         00:00:19.978    0 kbps          00:00:00.000    46 027 bytes    46 027 bytes    00:00:24.983
5               0:00:20.019     0:00:05.004     75 kbps         75 kbps         00:00:24.983    75 kbps         00:00:24.983    0 kbps          00:00:00.000    46 619 bytes    46 619 bytes    00:00:29.988
6               0:00:25.024     0:00:05.004     71 kbps         71 kbps         00:00:29.988    71 kbps         00:00:29.988    0 kbps          00:00:00.000    44 196 bytes    44 196 bytes    00:00:34.993
7               0:00:30.029     0:00:05.004     65 kbps         65 kbps         00:00:34.993    65 kbps         00:00:34.993    0 kbps          00:00:00.000    40 858 bytes    40 858 bytes    00:00:39.998
8               0:00:35.034     0:00:05.004     80 kbps         80 kbps         00:00:39.998    80 kbps         00:00:39.998    0 kbps          00:00:00.000    50 293 bytes    50 293 bytes    00:00:45.003
9               0:00:40.039     0:00:05.004     74 kbps         74 kbps         00:00:45.003    74 kbps         00:00:45.003    0 kbps          00:00:00.000    46 179 bytes    46 179 bytes    00:00:50.008
10              0:00:45.044     0:00:05.004     68 kbps         68 kbps         00:00:50.008    68 kbps         00:00:50.008    0 kbps          00:00:00.000    42 424 bytes    42 424 bytes    00:00:55.013
11              0:00:50.049     0:00:05.004     77 kbps         77 kbps         00:00:55.013    77 kbps         00:00:55.013    0 kbps          00:00:00.000    48 147 bytes    48 147 bytes    00:01:00.018
12              0:00:55.054     0:00:05.004     75 kbps         75 kbps         00:01:00.018    75 kbps         00:01:00.018    0 kbps          00:00:00.000    46 746 bytes    46 746 bytes    00:01:05.023
13              0:01:00.059     0:00:05.005     141 kbps        141 kbps        00:01:05.023    141 kbps        00:01:05.023    0 kbps          00:00:00.000    88 154 bytes    88 154 bytes    00:01:10.028
14              0:01:05.065     0:00:05.004     54 kbps         54 kbps         00:01:10.028    54 kbps         00:01:10.028    0 kbps          00:00:00.000    33 586 bytes    33 586 bytes    00:01:15.033
15              0:01:10.070     0:00:05.004     89 kbps         89 kbps         00:01:15.033    89 kbps         00:01:15.033    0 kbps          00:00:00.000    55 855 bytes    55 855 bytes    00:01:20.038
16              0:01:15.075     0:00:05.004     79 kbps         79 kbps         00:01:20.038    79 kbps         00:01:20.038    0 kbps          00:00:00.000    49 353 bytes    49 353 bytes    00:01:25.043
17              0:01:20.080     0:00:05.004     85 kbps         85 kbps         00:01:25.043    85 kbps         00:01:25.043    0 kbps          00:00:00.000    53 461 bytes    53 461 bytes    00:01:30.048
18              0:01:25.085     0:00:05.004     97 kbps         97 kbps         00:01:30.048    97 kbps         00:01:30.048    0 kbps          00:00:00.000    60 928 bytes    60 928 bytes    00:01:35.053
19              0:01:30.090     0:00:05.004     92 kbps         92 kbps         00:01:35.053    92 kbps         00:01:35.053    0 kbps          00:00:00.000    57 783 bytes    57 783 bytes    00:01:40.058
20              0:01:35.095     0:00:05.004     83 kbps         83 kbps         00:01:40.058    83 kbps         00:01:40.058    0 kbps          00:00:00.000    52 226 bytes    52 226 bytes    00:01:45.063
21              0:01:40.100     0:00:05.004     79 kbps         79 kbps         00:01:45.063    79 kbps         00:01:45.063    0 kbps          00:00:00.000    49 483 bytes    49 483 bytes    00:01:50.068
22              0:01:45.105     0:00:05.004     74 kbps         74 kbps         00:01:50.068    74 kbps         00:01:50.068    0 kbps          00:00:00.000    46 356 bytes    46 356 bytes    00:01:55.073
23              0:01:50.110     0:00:05.004     73 kbps         73 kbps         00:01:55.073    73 kbps         00:01:55.073    0 kbps          00:00:00.000    45 670 bytes    45 670 bytes    00:02:00.078
24              0:01:55.115     0:00:05.004     70 kbps         70 kbps         00:02:00.078    70 kbps         00:02:00.078    0 kbps          00:00:00.000    44 065 bytes    44 065 bytes    00:02:05.083
25              0:02:00.120     0:00:05.004     63 kbps         63 kbps         00:02:05.083    63 kbps         00:02:05.083    0 kbps          00:00:00.000    39 516 bytes    39 516 bytes    00:02:10.088
26              0:02:05.125     0:00:05.004     69 kbps         69 kbps         00:02:10.088    69 kbps         00:02:10.088    0 kbps          00:00:00.000    43 224 bytes    43 224 bytes    00:02:15.093
27              0:02:10.130     0:00:05.004     79 kbps         79 kbps         00:02:15.093    79 kbps         00:02:15.093    0 kbps          00:00:00.000    49 185 bytes    49 185 bytes    00:02:20.098
28              0:02:15.135     0:00:05.004     62 kbps         62 kbps         00:02:20.098    62 kbps         00:02:20.098    0 kbps          00:00:00.000    38 499 bytes    38 499 bytes    00:02:25.103
29              0:02:20.139     0:00:05.004     48 kbps         48 kbps         00:02:25.103    48 kbps         00:02:25.103    0 kbps          00:00:00.000    30 013 bytes    30 013 bytes    00:02:30.108
30              0:02:25.144     0:00:05.004     61 kbps         61 kbps         00:02:30.108    61 kbps         00:02:30.108    0 kbps          00:00:00.000    38 000 bytes    38 000 bytes    00:02:35.113
31              0:02:30.149     0:00:05.004     52 kbps         52 kbps         00:02:35.113    52 kbps         00:02:35.113    0 kbps          00:00:00.000    32 653 bytes    32 653 bytes    00:02:40.118
32              0:02:35.154     0:00:05.004     55 kbps         55 kbps         00:02:40.118    55 kbps         00:02:40.118    0 kbps          00:00:00.000    34 301 bytes    34 301 bytes    00:02:45.123
33              0:02:40.159     0:00:05.004     57 kbps         57 kbps         00:02:45.123    57 kbps         00:02:45.123    0 kbps          00:00:00.000    35 841 bytes    35 841 bytes    00:02:50.128
34              0:02:45.164     0:00:05.004     57 kbps         57 kbps         00:02:50.128    57 kbps         00:02:50.128    0 kbps          00:00:00.000    35 635 bytes    35 635 bytes    00:02:55.133
35              0:02:50.169     0:00:05.004     52 kbps         52 kbps         00:02:55.133    0 kbps          00:00:00.000    0 kbps          00:00:00.000    32 412 bytes    32 412 bytes    00:03:00.096
36              0:02:55.174     0:00:05.004     52 kbps         0 kbps          00:00:00.000    0 kbps          00:00:00.000    0 kbps          00:00:00.000    32 412 bytes    32 412 bytes    00:03:00.138

STREAM DIAGNOSTICS:

File            PID             Type            Codec           Language                Seconds                 Bitrate                 Bytes           Packets
----            ---             ----            -----           --------                --------------          --------------          -------------   -----
00008.M2TS      4113 (0x1011)   0x1B            AVC                                     175,133                 79                      1 719 456       9 371

<---- END FORUMS PASTE ---->

QUICK SUMMARY:

Disc Title: UDO LIVE IN BULGARIA
Disc Size: 23 958 818 315 bytes
Protection: AACS
BD-Java: No
Playlist: 00007.MPLS
Size: 2 955 264 bytes
Length: 0:03:00.179
Total Bitrate: 0,13 Mbps
Video: MPEG-4 AVC Video / 74 kbps / 1080p / 23,976 fps / 16:9 / High Profile 4.1

********************
PLAYLIST: 00000.MPLS
********************

<--- BEGIN FORUMS PASTE --->

Код:

Total   Video
Title                                                           Codec   Length  Movie Size      Disc Size       Bitrate Bitrate Main Audio Track                          Secondary Audio Track
-----                                                           ------  ------- --------------  --------------  ------- ------- ------------------                        ---------------------
00000.MPLS                                                      AVC     0:00:23 11 071 488      23 958 818 315  3,81    3,35    DD AC3 2.0 192Kbps

Код:

DISC INFO:

Disc Title:     UDO LIVE IN BULGARIA
Disc Size:      23 958 818 315 bytes
Protection:     AACS
BD-Java:        No
BDInfo:         0.5.8

PLAYLIST REPORT:

Name:                   00000.MPLS
Length:                 0:00:23.231 (h:m:s.ms)
Size:                   11 071 488 bytes
Total Bitrate:          3,81 Mbps

VIDEO:

Codec                   Bitrate             Description
-----                   -------             -----------
MPEG-4 AVC Video        3353 kbps           1080p / 23,976 fps / 16:9 / High Profile 4.1

AUDIO:

Codec                           Language        Bitrate         Description
-----                           --------        -------         -----------
Dolby Digital Audio             English         192 kbps        2.0 / 48 kHz / 192 kbps

FILES:

Name            Time In         Length          Size            Total Bitrate
----            -------         ------          ----            -------------
00000.M2TS      0:00:00.000     0:00:11.219     4 761 600       3 395
00001.M2TS      0:00:11.219     0:00:12.011     6 309 888       4 202

CHAPTERS:

Number          Time In         Length          Avg Video Rate  Max 1-Sec Rate  Max 1-Sec Time  Max 5-Sec Rate  Max 5-Sec Time  Max 10Sec Rate  Max 10Sec Time  Avg Frame Size  Max Frame Size  Max Frame Time
------          -------         ------          --------------  --------------  --------------  --------------  --------------  --------------  --------------  --------------  --------------  --------------
1               0:00:00.000     0:00:23.231     3 353 kbps      8 002 kbps      00:00:00.125    4 360 kbps      00:00:17.100    4 064 kbps      00:00:11.845    17 482 bytes    183 812 bytes   00:00:03.503

STREAM DIAGNOSTICS:

File            PID             Type            Codec           Language                Seconds                 Bitrate                 Bytes           Packets
----            ---             ----            -----           --------                --------------          --------------          -------------   -----
00000.M2TS      4113 (0x1011)   0x1B            AVC                                     11,136                  2 979                   4 146 733       22 640
00000.M2TS      4352 (0x1100)   0x81            AC3             eng (English)           11,136                  226                     314 496         1 755
00001.M2TS      4113 (0x1011)   0x1B            AVC                                     11,887                  3 763                   5 590 989       30 550
00001.M2TS      4352 (0x1100)   0x81            AC3             eng (English)           11,887                  194                     288 768         1 880

<---- END FORUMS PASTE ---->

QUICK SUMMARY:

Disc Title: UDO LIVE IN BULGARIA
Disc Size: 23 958 818 315 bytes
Protection: AACS
BD-Java: No
Playlist: 00000.MPLS
Size: 11 071 488 bytes
Length: 0:00:23.231
Total Bitrate: 3,81 Mbps
Video: MPEG-4 AVC Video / 3353 kbps / 1080p / 23,976 fps / 16:9 / High Profile 4.1
Audio: English / Dolby Digital Audio / 2.0 / 48 kHz / 192 kbps

Код:

Общее
Идентификатор                            : 0 (0x0)
Полное имя                               : D:\Torrent Files\UDO LIVE IN BULGARIA\BDMV\STREAM\00003.m2ts
Формат                                   : BDAV
Формат/Информация                        : Blu-ray Video
Размер файла                             : 21,6 Гбайт
Продолжительность                        : 2 ч. 24 м.
Режим общего битрейта                    : Переменный
Общий поток                              : 21,4 Мбит/сек
Максимальный общий битрейт               : 48,0 Мбит/сек

Видео
Идентификатор                            : 4113 (0x1011)
Идентификатор меню                       : 1 (0x1)
Формат                                   : AVC
Формат/Информация                        : Advanced Video Codec
Профиль формата                          : High@L4.1
Настройки формата                        : CABAC / 3 Ref Frames
Параметр CABAC формата                   : Да
Параметр RefFrames формата               : 3 кадра
Идентификатор кодека                     : 27
Продолжительность                        : 2 ч. 24 м.
Вид битрейта                             : Переменный
Номинальный битрейт                      : 16,0 Мбит/сек
Максимальный битрейт                     : 34,0 Мбит/сек
Ширина                                   : 1920 пикселей
Высота                                   : 1080 пикселей
Соотношение сторон                       : 16:9
Частота кадров                           : 23,976 (24000/1001) кадра/сек
Стандарт вещания                         : NTSC
Цветовое пространство                    : YUV
Субдискретизация насыщенности            : 4:2:0
Битовая глубина                          : 8 бит
Тип развёртки                            : Прогрессивная
Бит/(Пиксели*Кадры)                      : 0.322
Библиотека кодирования                   : x264pro - Adobe CS Exporter Plug-in
Настройки программы                      : cabac=1 / ref=4 / deblock=1:-1:-1 / analyse=0x3:0x113 / me=umh / subme=8 / psy=1 / psy_rd=1.00:0.15 / mixed_ref=1 / me_range=16 / chroma_me=1 / trellis=1 / 8x8dct=1 / cqm=0 / deadzone=21,11 / fast_pskip=1 / chroma_qp_offset=-3 / threads=36 / lookahead_threads=6 / sliced_threads=0 / slices=4 / nr=0 / decimate=1 / interlaced=0 / bluray_compat=1 / constrained_intra=0 / bframes=3 / b_pyramid=1 / b_adapt=2 / b_bias=0 / direct=3 / weightb=1 / open_gop=0 / weightp=1 / keyint=24 / keyint_min=1 / scenecut=40 / intra_refresh=0 / rc_lookahead=24 / rc=abr / mbtree=1 / bitrate=16000 / ratetol=1.0 / qcomp=0.60 / qpmin=0 / qpmax=69 / qpstep=4 / vbv_maxrate=34000 / vbv_bufsize=30000 / nal_hrd=vbr / ip_ratio=1.40 / aq=1:1.00
Цветовой диапазон                        : Limited
Основные цвета                           : BT.709
Характеристики трансфера                 : BT.709
Коэффициенты матрицы                     : BT.709

Аудио #1
Идентификатор                            : 4352 (0x1100)
Идентификатор меню                       : 1 (0x1)
Формат                                   : PCM
Настройки формата                        : Big / Signed
Режим смешивания                         : Blu-ray
Идентификатор кодека                     : 128
Продолжительность                        : 2 ч. 24 м.
Вид битрейта                             : Постоянный
Битрейт                                  : 1536 Кбит/сек
Каналы                                   : 2 канала
ChannelLayout                            : L R
Частота                                  : 48,0 КГц
Битовая глубина                          : 16 бит
Размер потока                            : 1,55 Гбайт (7%)

Аудио #2
Идентификатор                            : 4353 (0x1101)
Идентификатор меню                       : 1 (0x1)
Формат                                   : DTS XLL
Формат/Информация                        : Digital Theater Systems
Коммерческое название                    : DTS-HD Master Audio
Режим смешивания                         : Stream extension
Идентификатор кодека                     : 134
Продолжительность                        : 2 ч. 24 м.
Вид битрейта                             : Переменный
Каналы                                   : 6 каналов
ChannelLayout                            : C L R Ls Rs LFE
Частота                                  : 48,0 КГц
Частота кадров                           : 93,750 кадра/сек (512 SPF)
Битовая глубина                          : 16 бит
Метод сжатия                             : Без потерь


скриншот  скриншот  скриншот  скриншот  скриншот  
скриншот  скриншот  скриншот  скриншот  скриншот  
скриншот  скриншот  скриншот  скриншот  скриншот  
скриншот  скриншот  скриншот  скриншот  скриншот  


pb.wtf



Скачать U.D.O. через торрент https://i115.fastpic.org/big/2021/0904/09/693838e072ad39bdee4bb4ec01339f09.png Скачать, смотреть онлайн U.D.O. бесплантно в хорошем качестве Трэклист Intro Tongue Reaper Make The Move Midnight Mover Wrong Side Of Midnight Metal Machine Independence Day8. Rose ... 5 10 1
Торрент: Зарегистрирован [2021-09-04 11:54] · скачан: 5 раз
Статус: √ проверено
Размер: 22.31 GB
Как cкачать? Как скачать U.D.O. через торрент | UTorrent

% Раздел Тема Автор DL S | L
Heavy, Power, Progressive (lossless) [ 977 MB ] U.D.O. - Live In Bulgaria 2020 - 2021/ FLAC/ image +.cue/ lossless/ Heavy Metal sergej644 Скачать
2 | 0
Heavy, Power, Progressive (mp3) [ 324 MB ] U.D.O. - Live In Bulgaria 2020 - 2021/ MP3/ tracks/ 320 kbps/ Heavy Metal sergej644 Скачать
2 | 0

28-11-2019 20:33  

Отключить всю рекламу на сайте

    Дорогой пользователь! Огромная просьба, поблагодарите релизера, оцените раздачу и оставьте свои комментарий, если Вы скачали U.D.O. через торрент бесплатно!
    Комментировать посты могут только пользователи прошедшие не сложную регистрацию
    Показать сообщения:    

    U.D.O. через торрент
    Скачать бесплатно U.D.O.
    U.D.O. скачать торрент
    U.D.O. смотреть онлайн
    Cкачать фильм U.D.O. бесплатно
    U.D.O. скачать торрент в хорошем качестве
    U.D.O. смотреть онлайн бесплатно в хорошем качестве


    Вы не можете начинать темы
    Вы не можете отвечать на сообщения
    Вы не можете редактировать свои сообщения
    Вы не можете удалять свои сообщения
    Вы не можете голосовать в опросах
    Вы не можете прикреплять файлы к сообщениям
    Вы можете скачивать файлы