Доктор Стрэндж

Лицензия

Добыча

Дубляж

Дом дракона

1 сезон

Тор

Дубляж

В эфире

Дубляж

Там, где раки поют

MVO

Властелин колец

1 сезон

Ultimate

pack

Рекомендуем

30

Пиратка

ВАЖНО

ВАЖНО

Ghostwire

Пиратка

jed

RePack

nioh2

RePack

RDR2

RePack

NEED FOR SPEED™ PAYBACK

RePack

скачать торрент

Кинопоиск HD

Острые козырьки 6 сезон

6 сезон

FAR CRY 6

RePack

скачать торрент

Лицензия

скачать торрент

MVO

1

1 сезон

скачать торрент

1 сезон

скачать торрент

Лицензия

  

Пальма (Александр Домогаров мл.) [2021, Семейный, приключения, BDRip 720p] [Лицензия]

Пальма через торрент pb.wtf

Размер: 6.28 GB | Добавлен: 1 год 2 мес. назад | Торрент скачан:26 раз
Смотреть онлайн | Скачать   

05-09-2021 06:34 Пальма Скачать торрент  

Пальма
Год выпуска: 2021
Страна: Россия, Япония
Студия: Телеканал «РОССИЯ 1», OKKO Studios, АМЕДИА, Марс Медиа Энтертейнмент
Жанр: Семейный, приключения
Продолжительность: 01:50:13
Перевод: Не требуется | Лицензия
Субтитры: отсутствуют

Режиссер: Александр Домогаров мл.

rating

В ролях: Виктор Добронравов, Леонид Басов, Владимир Ильин, Валерия Федорович, Евгения Дмитриева, Игорь Хрипунов, Павел Майков, Владимир Симонов, Ян Цапник, Филипп Савинков, Дарья Лузина, Елена Анисимова, Михаил Богдасаров, Микаэл Джанибекян, Баин Бовальдинов, Илья Луцак, Александр Домогаров, Хироюки Ватанабе, Томоко Фудзита, Мицу Дан, Осаму Ямамото, Дзюн Такамацу, Дзюнко Абэ, Ёсикуни Дотин, Алина Загитова, Анастасия Шига

Описание: Овчарка по кличке Пальма вынужденно расстается с хозяином: тот улетает за границу, а верную собаку не берут на рейс и оставляют прямо на летном поле. Пальма прячется в аэропорту и каждый день встречает самолеты в надежде, что хозяин вернулся. Но время идет… 9-летний Коля — тоже новенький в аэропорту: он потерял маму и переехал к отцу-пилоту, которого почти не знает. Пальма становится для мальчика родственной душой и лучшим другом. А отцу Коли, летчику Лазареву, предстоит заслужить доверие и любовь сына, сделав нелегкий выбор между карьерой и семьей. И найти способ не разлучить друзей, когда за Пальмой однажды возвращается хозяин.

Качество: BDRip 720p
Формат: MKV

Видео: MPEG-4 AVC, 6000 Кбит/с, 1280х536, 24.000 FPS
Аудио #01: AC3, 6 ch, 640 Кбит/с | RUS
Аудио #02: DTS, 6 ch, 1509 Кбит/с | RUS
скриншот  скриншот  скриншот  скриншот  

Complete name : Palma.2021.BDRip.720p.ELEKTRI4KA.UNIONGANG.mkv
Format : Matroska
Format version : Version 4
File size : 6.28 GiB
Duration : 1 h 50 min
Overall bit rate : 8 152 kb/s
Movie name : Palma.2021.BDRip.720p.ELEKTRI4KA.UNIONGANG.
Encoded date : UTC 2021-09-04 14:27:13
Writing application : mkvmerge v8.3.0 ('Over the Horizon') 32bit
Writing library : libebml v1.3.1 + libmatroska v1.4.2

Video
ID : 1
Format : AVC
Format/Info : Advanced Video Codec
Format profile : [email protected]
Format settings : CABAC / 12 Ref Frames
Format settings, CABAC : Yes
Format settings, Reference frames : 12 frames
Codec ID : V_MPEG4/ISO/AVC
Duration : 1 h 50 min
Bit rate : 6 000 kb/s
Width : 1 280 pixels
Height : 536 pixels
Display aspect ratio : 2.40:1
Frame rate mode : Constant
Frame rate : 24.000 FPS
Color space : YUV
Chroma subsampling : 4:2:0
Bit depth : 8 bits
Scan type : Progressive
Bits/(Pixel*Frame) : 0.364
Stream size : 4.62 GiB (74%)
Writing library : x264 core 157 r2958 57baac4
Encoding settings : cabac=1 / ref=12 / deblock=1:-3:-3 / analyse=0x3:0x133 / me=umh / subme=10 / psy=1 / psy_rd=1.00:0.00 / mixed_ref=1 / me_range=32 / chroma_me=1 / trellis=2 / 8x8dct=1 / cqm=0 / deadzone=21,11 / fast_pskip=0 / chroma_qp_offset=-2 / threads=49 / lookahead_threads=4 / sliced_threads=0 / nr=0 / decimate=0 / interlaced=0 / bluray_compat=0 / constrained_intra=0 / bframes=8 / b_pyramid=2 / b_adapt=2 / b_bias=0 / direct=3 / weightb=0 / open_gop=0 / weightp=2 / keyint=240 / keyint_min=24 / scenecut=40 / intra_refresh=0 / rc=2pass / mbtree=0 / bitrate=6000 / ratetol=1.0 / qcomp=0.60 / qpmin=0 / qpmax=69 / qpstep=4 / cplxblur=20.0 / qblur=0.5 / ip_ratio=1.40 / pb_ratio=1.30 / aq=1:1.00
Default : Yes
Forced : No

Audio #1
ID : 2
Format : AC-3
Format/Info : Audio Coding 3
Commercial name : Dolby Digital
Codec ID : A_AC3
Duration : 1 h 50 min
Bit rate mode : Constant
Bit rate : 640 kb/s
Channel(s) : 6 channels
Channel layout : L R C LFE Ls Rs
Sampling rate : 48.0 kHz
Frame rate : 31.250 FPS (1536 SPF)
Compression mode : Lossy
Stream size : 505 MiB (8%)
Title : Original AC3 (Lic)
Language : Russian
Service kind : Complete Main
Default : Yes
Forced : Yes

Audio #2
ID : 3
Format : DTS
Format/Info : Digital Theater Systems
Codec ID : A_DTS
Duration : 1 h 50 min
Bit rate mode : Constant
Bit rate : 1 509 kb/s
Channel(s) : 6 channels
Channel layout : C L R Ls Rs LFE
Sampling rate : 48.0 kHz
Frame rate : 93.750 FPS (512 SPF)
Bit depth : 16 bits
Compression mode : Lossy
Stream size : 1.16 GiB (19%)
Title : Original DTS (Lic)
Language : Russian
Default : No
Forced : No

Menu
00:00:00.000 : :Chapter 1
00:12:22.750 : :Chapter 2
00:18:23.958 : :Chapter 3
00:24:54.208 : :Chapter 4
00:33:14.000 : :Chapter 5
00:40:45.208 : :Chapter 6
00:48:23.708 : :Chapter 7
00:54:40.208 : :Chapter 8
01:01:25.250 : :Chapter 9
01:07:00.666 : :Chapter 10
01:12:34.625 : :Chapter 11
01:16:57.250 : :Chapter 12
01:24:45.125 : :Chapter 13
01:29:35.208 : :Chapter 14
01:35:58.125 : :Chapter 15
01:45:53.291 : :Chapter 16
01:50:13.291 : :Chapter 17




Скачать Пальма через торрент https://i114.fastpic.ru/big/2021/0519/8c/de32db98dcb8aced0f953e824bd58d8c.jpg Скачать, смотреть онлайн Пальма бесплантно в хорошем качестве Описание: Овчарка по кличке Пальма вынужденно расстается с хозяином: тот улетает за границу, а верную собаку не берут на рейс и оставляют ... 10 10 4
Торрент: Зарегистрирован [2021-09-05 06:34] · скачан: 26 раз
Статус: √ проверено
Размер: 6.28 GB
Как cкачать? Как скачать Пальма через торрент | UTorrent

% Раздел Тема Автор DL S | L
Детские отечественные фильмы [ 10.9 GB ] Пальма | Лицензия | 1080p bober100 Скачать
2 | 0
Детские отечественные фильмы [ 1.46 GB ] Пальма | Лицензия | BDRip bober100 Скачать
1 | 0
Детские отечественные фильмы [ 2.05 GB ] Пальма | | DLRip-AVC bober100 Скачать
1 | 0
Детские отечественные фильмы [ 5.56 GB ] Пальма | iTunes | 1080p bober100 Скачать
1 | 0
Детские отечественные фильмы [ 1.46 GB ] Пальма | iTunes | DLRip bober100 Скачать
2 | 0

28-11-2019 20:33  


Отключить вcю реклaмy на сайте, в т.ч. и в плеере онлайн просмотра!

    Дорогой пользователь! Огромная просьба, поблагодарите релизера, оцените раздачу и оставьте свои комментарий, если Вы скачали Пальма через торрент бесплатно!!
    Комментировать посты могут только пользователи прошедшие не сложную регистрацию
    Показать сообщения:    


    Пальма через торрент
    Скачать бесплатно Пальма
    Пальма скачать торрент
    Пальма смотреть онлайн
    Cкачать фильм Пальма бесплатно
    Пальма скачать торрент в хорошем качестве
    Пальма смотреть онлайн бесплатно в хорошем качестве
    Вы не можете начинать темы
    Вы не можете отвечать на сообщения
    Вы не можете редактировать свои сообщения
    Вы не можете удалять свои сообщения
    Вы не можете голосовать в опросах
    Вы не можете прикреплять файлы к сообщениям
    Вы можете скачивать файлы
    Пальма [2021, Семейный, приключения, BDRip 720p] [Лицензия] смотреть онлайн, скачать торрент picoco.icu