Доктор Стрэндж

Лицензия

Добыча

Дубляж

Дом дракона

1 сезон

Тор

Дубляж

В эфире

Дубляж

Там, где раки поют

MVO

Властелин колец

1 сезон

GLOBAL

pack

Рекомендуем

30

Пиратка

ВАЖНО

ВАЖНО

Ghostwire

Пиратка

jed

RePack

nioh2

RePack

RDR2

RePack

NEED FOR SPEED™ PAYBACK

RePack

скачать торрент

Кинопоиск HD

Острые козырьки 6 сезон

6 сезон

FAR CRY 6

RePack

скачать торрент

Лицензия

скачать торрент

MVO

1

1 сезон

скачать торрент

1 сезон

скачать торрент

Лицензия

  

Пальма (Александр Домогаров) [2020, Семейный, приключения, реальные события, HDRip-AVC] RUS [Лицензия] от MediaBit

Пальма через торрент pb.wtf

Раздают: 1 [ 0 KB/s ]
Размер: 2.26 GB | Добавлен: 1 год 2 мес. назад | Торрент скачан:142 раза
Смотреть онлайн | Скачать   

05-09-2021 08:16 Пальма Скачать торрент  


Пальма
Название: Пальма
Год выхода: 2020
Жанр: Семейный, приключения, реальные события
Режиссер: Александр Домогаров мл.

В ролях: Виктор Добронравов, Леонид Басов, Владимир Ильин, Валерия Федорович, Евгения Дмитриева, Игорь Хрипунов, Павел Майков, Владимир Симонов, Ян Цапник, Филипп Савинков, Дарья Лузина, Елена Анисимова, Михаил Богдасаров, Микаэл Джанибекян, Баин Бовальдинов, Илья Луцак, Александр Домогаров, Хироюки Ватанабе, Томоко Фудзита, Мицу Дан, Осаму Ямамото, Дзюн Такамацу, Дзюнко Абэ, Ёсикуни Дотин, Алина Загитова, Анастасия Шига

Описание: Овчарка по кличке Пальма вынужденно расстается с хозяином: тот улетает за границу, а верную собаку не берут на рейс и оставляют прямо на летном поле. Пальма прячется в аэропорту и каждый день встречает самолеты в надежде, что хозяин вернулся. Но время идет… 9-летний Коля — тоже новенький в аэропорту: он потерял маму и переехал к отцу-пилоту, которого почти не знает. Пальма становится для мальчика родственной душой и лучшим другом. А отцу Коли, летчику Лазареву, предстоит заслужить доверие и любовь сына, сделав нелегкий выбор между карьерой и семьей. И найти способ не разлучить друзей, когда за Пальмой однажды возвращается хозяин.



Страна: Россия
Студия: Телеканал «РОССИЯ 1», OKKO Studios, АМЕДИА, Марс Медиа Энтертейнмент
Продолжительность: 01:50:13
Перевод: Не требуется - Лицензия



Информация о файле:
Кодек: AVC
Формат: MKV
Качество: HDRip-AVC
Видео: MPEG-4 AVC, 1024x428, 24.000 fps, 2490 kbps
Аудио RU: AC3, 6 ch, 48 kHz, 448 kbps

x264 info: frame I:1175 Avg QP:14.40 size: 82240
x264 info: frame P:35313 Avg QP:18.03 size: 27317
x264 info: frame B:122253 Avg QP:20.48 size: 8142
General
Unique ID : 18066213545782249791638877358303990244 (0xD976D192571F7AC4467E549425BD1E4)
Complete name : D:uTorrentРипы wolf1245Palma.2020.RUS.LIC.HDRip-AVC.[=wolf1245.MediaBit=].mkv
Format : Matroska
Format version : Version 4
File size : 2.26 GiB
Duration : 1 h 50 min
Overall bit rate : 2 937 kb/s
Movie name : Palma.2020.RUS.LIC.HDRip-AVC.[=wolf1245.MediaBit=]
Encoded date : UTC 2021-09-05 08:02:39
Writing application : mkvmerge v61.0.0 ('So') 64-bit
Writing library : libebml v1.4.2 + libmatroska v1.6.4
Video
ID : 1
Format : AVC
Format/Info : Advanced Video Codec
Format profile : [email protected]
Format settings : CABAC / 14 Ref Frames
Format settings, CABAC : Yes
Format settings, Reference frames : 14 frames
Codec ID : V_MPEG4/ISO/AVC
Duration : 1 h 50 min
Bit rate : 2 490 kb/s
Width : 1 024 pixels
Height : 428 pixels
Display aspect ratio : 2.40:1
Frame rate mode : Constant
Frame rate : 24.000 FPS
Color space : YUV
Chroma subsampling : 4:2:0
Bit depth : 8 bits
Scan type : Progressive
Bits/(Pixel*Frame) : 0.237
Stream size : 1.92 GiB (85%)
Writing library : x264 core 161 r3020 d198931
Encoding settings : cabac=1 / ref=14 / deblock=1:-3:-3 / analyse=0x3:0x133 / me=umh / subme=11 / psy=1 / psy_rd=1.03:0.06 / mixed_ref=1 / me_range=48 / chroma_me=1 / trellis=2 / 8x8dct=1 / cqm=0 / deadzone=21,11 / fast_pskip=1 / chroma_qp_offset=-3 / threads=10 / lookahead_threads=2 / sliced_threads=0 / nr=0 / decimate=1 / interlaced=0 / bluray_compat=0 / constrained_intra=0 / bframes=12 / b_pyramid=2 / b_adapt=2 / b_bias=0 / direct=3 / weightb=1 / open_gop=0 / weightp=2 / keyint=240 / keyint_min=24 / scenecut=40 / intra_refresh=0 / rc_lookahead=60 / rc=2pass / mbtree=1 / bitrate=2490 / ratetol=1.0 / qcomp=0.60 / qpmin=0 / qpmax=69 / qpstep=4 / cplxblur=20.0 / qblur=0.5 / vbv_maxrate=50000 / vbv_bufsize=62500 / nal_hrd=none / filler=0 / ip_ratio=1.40 / aq=3:0.90
Language : Russian
Default : Yes
Forced : No
Audio
ID : 2
Format : AC-3
Format/Info : Audio Coding 3
Commercial name : Dolby Digital
Codec ID : A_AC3
Duration : 1 h 50 min
Bit rate mode : Constant
Bit rate : 448 kb/s
Channel(s) : 6 channels
Channel layout : L R C LFE Ls Rs
Sampling rate : 48.0 kHz
Frame rate : 31.250 FPS (1536 SPF)
Compression mode : Lossy
Stream size : 353 MiB (15%)
Title : RUS | Лицензия
Language : Russian
Service kind : Complete Main
Default : Yes
Forced : No
Menu
00:00:00.000 : :Chapter 1
00:12:22.750 : :Chapter 2
00:18:23.958 : :Chapter 3
00:24:54.208 : :Chapter 4
00:33:14.000 : :Chapter 5
00:40:45.208 : :Chapter 6
00:48:23.708 : :Chapter 7
00:54:40.208 : :Chapter 8
01:01:25.250 : :Chapter 9
01:07:00.666 : :Chapter 10
01:12:34.625 : :Chapter 11
01:16:57.250 : :Chapter 12
01:24:45.125 : :Chapter 13
01:29:35.208 : :Chapter 14
01:35:58.125 : :Chapter 15
01:45:53.291 : :Chapter 16
01:50:13.291 : :Chapter 17
Релиз от: amp;




Скачать Пальма через торрент https://i115.fastpic.org/big/2021/0905/1b/e2a44cbf397d7e9a3c3be5f79c51541b.jpg Скачать, смотреть онлайн Пальма бесплантно в хорошем качестве Описание: Овчарка по кличке Пальма вынужденно расстается с хозяином: тот улетает за границу, а верную собаку не берут на рейс и оставляют ... 10 10 3
Info! Золотая раздача, скачанное не засчитывается.
Торрент: Зарегистрирован [2021-09-05 08:16] · скачан: 142 раз
Статус: √ проверено
Размер: 2.26 GB
Как cкачать? Как скачать Пальма через торрент | UTorrent

28-11-2019 20:33  


Отключить вcю реклaмy на сайте, в т.ч. и в плеере онлайн просмотра!

05-09-2021 08:34 Пальма Скачать торрент  

Топик был перенесен из форума Наши новые фильмы 2020 - 2021 в форум Детские отечественные фильмы


bober100



    Дорогой пользователь! Огромная просьба, поблагодарите релизера, оцените раздачу и оставьте свои комментарий, если Вы скачали Пальма через торрент бесплатно!!
    Комментировать посты могут только пользователи прошедшие не сложную регистрацию
    Показать сообщения:    


    Пальма через торрент
    Скачать бесплатно Пальма
    Пальма скачать торрент
    Пальма смотреть онлайн
    Cкачать фильм Пальма бесплатно
    Пальма скачать торрент в хорошем качестве
    Пальма смотреть онлайн бесплатно в хорошем качестве
    Вы не можете начинать темы
    Вы не можете отвечать на сообщения
    Вы не можете редактировать свои сообщения
    Вы не можете удалять свои сообщения
    Вы не можете голосовать в опросах
    Вы не можете прикреплять файлы к сообщениям
    Вы можете скачивать файлы
    Пальма [2020, Семейный, приключения, реальные события, HDRip-AVC] RUS [Лицензия] от MediaBit смотреть онлайн, скачать торрент picoco.icu