Присоединяйтесь к нам в Telegram!, здесь всегда актуальный адрес сайта, оперативная поддержка и многое другое!!

>

5.9

iTunes

7.4

iTunes

9.4

1 сезон

1

7.4

2 сезон

7.2

iTunes

7.3

1 сезон

13

6.1

iTunes

8.3

GOG

30

ULTIMATE

pack

9.9

Лицензия

ВАЖНО

ИГРА 18+

pack

7.3

RePack

MK11

7.7

RePack

jed

7.8

RePack

fifa19

8.5

RePack

RDR2

RePack

NEED FOR SPEED™ PAYBACK

5 сезон

9 сезон

Бесстыжие 9 сезон

Все сериалы

все сериалы на PB.wtf

RePack

FAR CRY 5

Anonymous, доброй ночи, мы катастрофически не успеваем собрать деньги на оплату серверов, помогите нам пожалуйста 5,10,15р., для нас важна любая помощь . В качестве благодарности мы отключим Вам всю рекламу на сайте (укажите свой ник в строку Ваше имя)!

×
  
Magnet ссылка

Не дыши 2 / Don't Breathe 2 (Родольфо Саягес) [2021, Ужасы, триллер, HDRip-AVC] DUB, AVO [Пифагор, Есарев] от ExKinoRay pb.wtf

Не дыши 2 через торрент pb.wtf

Раздают: 1 [ 0 KB/s ]
Размер: 2.05 GB | Добавлен: 1 мес. 8 д. назад | Торрент скачан:49 раз
Смотреть онлайн Не дыши 2 | Скачать    Ребята, помогите собрать деньги на оплату серверов!!!

05-09-2021 15:45 Не дыши 2 Скачать торрент  


Не дыши 2 / Don't Breathe 2
Информация о фильме:
Название: Не дыши 2
Оригинальное название: Don't Breathe 2
Год выхода: 2021
Жанр: Ужасы, боевик, триллер, драма
Режиссер: Родольфо Саягес
В ролях: Стивен Лэнг, Мэдлин Грэйс, Брендан Секстон III, Адам Янг, Рокки Уильямс, Кристиан Сахиа, Бобби Шофилд, Фиона О’Шонесси, Стефани Арсила, Диана Бабницова

Описание: Слепой мужчина долгие годы жил в изолированной хижине вместе с девочкой, которую он спас из пожара. Неожиданно их уединение нарушает банда головорезов, которые похищают девушку. Слепой вынужден покинуть свое убежище, чтобы спасти близкого человека.
«Не дыши 2» — сиквел одноименного триллера о слепом человеке, который сражается со злом его же методами.



Страна: США, Сербия
Студия: Bad Hombre, Ghost House Pictures, Screen Gems, Sony Pictures Entertainment (SPE) Worldwide Acquisitions Group, Stage 6 Films
Продолжительность: 01:38:15
Перевод: Дублированный - Пифагор , Авторский - Д. Есарев



Информация о файле:
Кодек: AVC
Формат: MKV
Качество: HDRip-AVC
Видео: MPEG-4 AVC, 1024x428, 23.976 fps, 1705 kbps
Аудио RU: AC3, 6 ch, 48 kHz, 384 kbps
Аудио RU: AC3, 6 ch, 48 kHz, 448 kbps
Аудио EN: AC3, 6 ch, 48 kHz, 448 kbps
Субтитры: Русские (Forced, 2 x full), английские

x264 info: frame I:1094 Avg QP:10.12 size: 53122
x264 info: frame P:31706 Avg QP:12.99 size: 19393
x264 info: frame B:108550 Avg QP:14.61 size: 5361
x264 info: consecutive B-frames: 2.4% 3.4% 7.6% 21.9% 16.7% 40.3% 4.2% 2.5% 0.4% 0.4% 0.3%
General
Unique ID : 158167847307247161736977031973991244286 (0x76FE04F3422A74C40EB1E719F11261FE)
Complete name : D:uTorrentРипы wolf1245Dont Breathe 2.2021.DUB.AVO.HDRip-AVC.[wolf1245.ExKinoRay].mkv
Format : Matroska
Format version : Version 4
File size : 2.05 GiB
Duration : 1 h 38 min
Overall bit rate : 2 985 kb/s
Movie name : Dont Breathe 2.2021.DUB.AVO.HDRip-AVC.[wolf1245.ExKinoRay]
Encoded date : UTC 2021-10-21 16:36:49
Writing application : mkvmerge v62.0.0 ('Apollo') 64-bit
Writing library : libebml v1.4.2 + libmatroska v1.6.4
Video
ID : 1
Format : AVC
Format/Info : Advanced Video Codec
Format profile : High@L4.1
Format settings : CABAC / 12 Ref Frames
Format settings, CABAC : Yes
Format settings, Reference frames : 12 frames
Codec ID : V_MPEG4/ISO/AVC
Duration : 1 h 38 min
Bit rate : 1 705 kb/s
Width : 1 024 pixels
Height : 428 pixels
Display aspect ratio : 2.40:1
Frame rate mode : Constant
Frame rate : 23.976 (24000/1001) FPS
Color space : YUV
Chroma subsampling : 4:2:0
Bit depth : 8 bits
Scan type : Progressive
Bits/(Pixel*Frame) : 0.162
Stream size : 1.17 GiB (57%)
Title : -=[wolf1245.ExKinoRay]=-
Writing library : x264 core 161 r3020 d198931
Encoding settings : cabac=1 / ref=12 / deblock=1:-3:-3 / analyse=0x3:0x133 / me=umh / subme=11 / psy=1 / psy_rd=1.02:0.07 / mixed_ref=1 / me_range=48 / chroma_me=1 / trellis=2 / 8x8dct=1 / cqm=0 / deadzone=21,11 / fast_pskip=1 / chroma_qp_offset=-3 / threads=10 / lookahead_threads=2 / sliced_threads=0 / nr=0 / decimate=0 / interlaced=0 / bluray_compat=0 / constrained_intra=0 / bframes=10 / b_pyramid=2 / b_adapt=2 / b_bias=0 / direct=3 / weightb=1 / open_gop=0 / weightp=2 / keyint=240 / keyint_min=24 / scenecut=40 / intra_refresh=0 / rc_lookahead=60 / rc=2pass / mbtree=0 / bitrate=1705 / ratetol=1.0 / qcomp=0.60 / qpmin=0 / qpmax=69 / qpstep=4 / cplxblur=20.0 / qblur=0.5 / vbv_maxrate=50000 / vbv_bufsize=62500 / nal_hrd=none / filler=0 / ip_ratio=1.40 / pb_ratio=1.30 / aq=1:0.80
Language : Chinese
Default : Yes
Forced : No
Audio #1
ID : 2
Format : AC-3
Format/Info : Audio Coding 3
Commercial name : Dolby Digital
Codec ID : A_AC3
Duration : 1 h 38 min
Bit rate mode : Constant
Bit rate : 384 kb/s
Channel(s) : 6 channels
Channel layout : L R C LFE Ls Rs
Sampling rate : 48.0 kHz
Frame rate : 31.250 FPS (1536 SPF)
Compression mode : Lossy
Stream size : 270 MiB (13%)
Title : Dub [Pifagor]
Language : Russian
Service kind : Complete Main
Default : Yes
Forced : No
Audio #2
ID : 3
Format : AC-3
Format/Info : Audio Coding 3
Commercial name : Dolby Digital
Codec ID : A_AC3
Duration : 1 h 38 min
Bit rate mode : Constant
Bit rate : 448 kb/s
Channel(s) : 6 channels
Channel layout : L R C LFE Ls Rs
Sampling rate : 48.0 kHz
Frame rate : 31.250 FPS (1536 SPF)
Compression mode : Lossy
Stream size : 315 MiB (15%)
Title : AVO [Yesarev]
Language : Russian
Service kind : Complete Main
Default : No
Forced : No
Audio #3
ID : 4
Format : AC-3
Format/Info : Audio Coding 3
Commercial name : Dolby Digital
Codec ID : A_AC3
Duration : 1 h 38 min
Bit rate mode : Constant
Bit rate : 448 kb/s
Channel(s) : 6 channels
Channel layout : L R C LFE Ls Rs
Sampling rate : 48.0 kHz
Frame rate : 31.250 FPS (1536 SPF)
Compression mode : Lossy
Stream size : 315 MiB (15%)
Title : Original
Language : English
Service kind : Complete Main
Default : No
Forced : No
Text #1
ID : 5
Format : UTF-8
Codec ID : S_TEXT/UTF8
Codec ID/Info : UTF-8 Plain Text
Duration : 1 h 36 min
Bit rate : 0 b/s
Count of elements : 10
Stream size : 336 Bytes (0%)
Title : Forced
Language : Russian
Default : Yes
Forced : Yes
Text #2
ID : 6
Format : UTF-8
Codec ID : S_TEXT/UTF8
Codec ID/Info : UTF-8 Plain Text
Duration : 1 h 36 min
Bit rate : 22 b/s
Count of elements : 504
Stream size : 15.8 KiB (0%)
Title : Full v.1
Language : Russian
Default : No
Forced : No
Text #3
ID : 7
Format : UTF-8
Codec ID : S_TEXT/UTF8
Codec ID/Info : UTF-8 Plain Text
Duration : 1 h 29 min
Bit rate : 23 b/s
Count of elements : 487
Stream size : 15.1 KiB (0%)
Title : Full v.2
Language : Russian
Default : No
Forced : No
Text #4
ID : 8
Format : UTF-8
Codec ID : S_TEXT/UTF8
Codec ID/Info : UTF-8 Plain Text
Duration : 1 h 26 min
Bit rate : 14 b/s
Count of elements : 487
Stream size : 9.53 KiB (0%)
Title : Full
Language : English
Default : No
Forced : No
Text #5
ID : 9
Format : UTF-8
Codec ID : S_TEXT/UTF8
Codec ID/Info : UTF-8 Plain Text
Duration : 1 h 35 min
Bit rate : 23 b/s
Count of elements : 925
Stream size : 16.8 KiB (0%)
Title : SDH
Language : English
Default : No
Forced : No
Menu
00:00:00.000 : :Chapter 01
00:04:06.371 : :Chapter 02
00:08:39.477 : :Chapter 03
00:13:10.790 : :Chapter 04
00:19:12.777 : :Chapter 05
00:24:10.658 : :Chapter 06
00:28:03.891 : :Chapter 07
00:31:33.934 : :Chapter 08
00:37:15.108 : :Chapter 09
00:41:25.942 : :Chapter 10
00:45:21.928 : :Chapter 11
00:50:37.243 : :Chapter 12
00:55:42.798 : :Chapter 13
01:02:19.861 : :Chapter 14
01:09:26.537 : :Chapter 15
01:18:19.653 : :Chapter 16
Релиз от:
Автор релиза:
pb.wtf



Скачать Не дыши 2 через торрент https://i116.fastpic.org/big/2021/1021/87/d306cf5a846001f5c075348136563387.jpg Скачать, смотреть онлайн Не дыши 2 бесплантно в хорошем качестве Описание: Слепой мужчина долгие годы жил в изолированной хижине вместе с девочкой, которую он спас из пожара. Неожиданно их уединение ... 10 10 7
Торрент: Зарегистрирован [2021-10-21 16:58] · скачан: 49 раз
Статус: √ проверено
Размер: 2.05 GB
Как cкачать? Как скачать Не дыши 2 через торрент | UTorrent

28-11-2019 20:33  

Отключить всю рекламу на сайте

    Дорогой пользователь! Огромная просьба, поблагодарите релизера, оцените раздачу и оставьте свои комментарий, если Вы скачали Не дыши 2 через торрент бесплатно!
    Комментировать посты могут только пользователи прошедшие не сложную регистрацию
    Показать сообщения:    

    Не дыши 2 через торрент
    Скачать бесплатно Не дыши 2
    Не дыши 2 скачать торрент
    Не дыши 2 смотреть онлайн
    Cкачать фильм Не дыши 2 бесплатно
    Не дыши 2 скачать торрент в хорошем качестве
    Не дыши 2 смотреть онлайн бесплатно в хорошем качестве


    Вы не можете начинать темы
    Вы не можете отвечать на сообщения
    Вы не можете редактировать свои сообщения
    Вы не можете удалять свои сообщения
    Вы не можете голосовать в опросах
    Вы не можете прикреплять файлы к сообщениям
    Вы можете скачивать файлы