Anonymous, добрый вечер, присоединяйтесь к нам в Telegram!, здесь всегда актуальный адрес сайта, оперативная поддержка и многое другое!

>

5.6

iTunes

7.4

iTunes

5.7

MVO

1

7.7

1 сезон

6.8

iTunes

7.3

1 сезон

13

6.7

1 сезон

8.3

RePack

30

ULTIMATE

pack

9.9

Лицензия

ВАЖНО

ИГРА 18+

pack

7.3

RePack

MK11

7.7

RePack

jed

7.8

RePack

fifa19

8.5

RePack

RDR2

RePack

NEED FOR SPEED™ PAYBACK

4 сезон

9 сезон

Бесстыжие 9 сезон

Все сериалы

все сериалы на PB.wtf

RePack

FAR CRY 5

Anonymous, добрый вечер, мы катастрофически не успеваем собрать деньги на оплату серверов, помогите нам пожалуйста 5,10,15р., для нас важна любая помощь . В качестве благодарности мы отключим Вам всю рекламу на сайте (укажите свой ник в строку Ваше имя)!

×
  
Magnet ссылка

Егор Вершинин - ПДД от А до Я [2020 г., Правила дорожного движения, mp4] pb.wtf

Егор Вершинин - ПДД от А до Я через торрент pb.wtf

Раздают: 7 [ 0 KB/s ]
Размер: 4.22 GB | Добавлен: 1 мес. 13 д. назад | Торрент скачан:39 раз
Смотреть онлайн Егор Вершинин - ПДД от А до Я | Скачать    Ребята, помогите собрать деньги на оплату серверов!!!

05-09-2021 17:22 Егор Вершинин - ПДД от А до Я Скачать торрент  

ПДД от А до Я
Год выпуска: 2020
Страна: Россия
Жанр: Правила дорожного движения
Автор: Егор Вершинин

Системные требования:
• операционная система: Windows 2000/XP/Vista/7/8.1/10/GNU linux
• процессор: 800 MHz
• оперативная память: 512 МБ
• звуковая карта: (можно встроенную в материнскую плату)
• видеокарта: (можно встроенную в материнскую плату)

Описание:
Узнайте, как легко изучить правила дорожного движения, а также понять все их тонкости, не читая нудную книжку и тонны макулатуры с комментариями.
И как эти знания позволят вам получить 100% уверенность за рулём, не нахватать кучу штрафов и не попасть в аварию...


Если Вы хотите в совершенстве знать правила дорожного движения потому что:

• Скоро экзамен в ГАИ;
• Есть водительские права, но не знаете правила, а в автошколу уже идти не хочется;
• Давно не ездили за рулём;
• Давно за рулём, но правила уже не помните;
• Хотите хорошо знать ПДД, чтобы легко общаться с инспекторами ДПС и не доводить дело до суда;
• Просто хотите освежить знания ПДД;
• Но, сухой текст правил из книги ПДД даётся Вам очень нелегко.


Качество: mp4
Формат: MPEG-4
Видео кодек: AVC, 1920x1080, 25.000 fps, 638 Kbps
Аудио#1: AAC LC, 48,0KHz , 2 ch, ~265 Kbps
1. Откройте файл index.html

2. Если по какой-то причине меню не открывается или не работает видео из него,
то откройте папку с видеофайлами напрямую.
Для этого перейдите в папку uroki -> video
Полное имя : C:\Downloads\[Егор Вершинин] ПДД от А до Я (2020)\uroki\video\osnovnie_polojeniya.mp4
Формат : MPEG-4
Профиль формата : Base Media
Идентификатор кодека : isom (isom/iso2/avc1/mp41)
Размер файла : 231 Мбайт
Продолжительность : 35 м. 49 с.
Общий поток : 903 Кбит/сек
Программа кодирования : Lavf57.25.100

Видео
Идентификатор : 1
Формат : AVC
Формат/Информация : Advanced Video Codec
Профиль формата : Baseline@L4
Настройки формата : 1 Ref Frames
Параметр CABAC формата : Нет
Параметр RefFrames формата : 1 кадр
Идентификатор кодека : avc1
Идентификатор кодека/Информация : Advanced Video Coding
Продолжительность : 35 м. 49 с.
Битрейт : 638 Кбит/сек
Номинальный битрейт : 2 626 Кбит/сек
Ширина : 1 920 пикселей
Высота : 1 080 пикселей
Соотношение сторон : 16:9
Режим частоты кадров : Постоянный
Частота кадров : 25,000 кадров/сек
Цветовое пространство : YUV
Субдискретизация насыщенности : 4:2:0
Битовая глубина : 8 бит
Тип развёртки : Прогрессивная
Бит/(Пиксели*Кадры) : 0.012
Размер потока : 164 Мбайт (71%)
Библиотека кодирования : x264 core 148 r2643 5c65704
Настройки программы : cabac=0 / ref=1 / deblock=1:0:0 / analyse=0x1:0x111 / me=hex / subme=7 / psy=1 / psy_rd=1.00:0.00 / mixed_ref=0 / me_range=16 / chroma_me=1 / trellis=1 / 8x8dct=0 / cqm=0 / deadzone=21,11 / fast_pskip=1 / chroma_qp_offset=-2 / threads=12 / lookahead_threads=2 / sliced_threads=0 / nr=0 / decimate=1 / interlaced=0 / bluray_compat=0 / constrained_intra=0 / bframes=0 / weightp=0 / keyint=250 / keyint_min=25 / scenecut=40 / intra_refresh=0 / rc_lookahead=40 / rc=abr / mbtree=1 / bitrate=2626 / ratetol=1.0 / qcomp=0.60 / qpmin=10 / qpmax=51 / qpstep=4 / ip_ratio=1.41 / aq=1:1.00
Язык : English
Codec configuration box : avcC

Аудио
Идентификатор : 2
Формат : AAC LC
Формат/Информация : Advanced Audio Codec Low Complexity
Идентификатор кодека : mp4a-40-2
Продолжительность : 35 м. 49 с.
Вид битрейта : Постоянный
Битрейт : 265 Кбит/сек
Каналы : 2 канала
Channel layout : L R
Частота : 48,0 КГц
Частота кадров : 46,875 кадров/сек (1024 SPF)
Метод сжатия : С потерями
Размер потока : 66,5 Мбайт (29%)
Язык : English
Default : Да
Alternate group : 1
pb.wtf



Скачать Егор Вершинин - ПДД от А до Я через торрент http://b.radikal.ru/b11/2109/bc/c0f2e092c981.png Скачать, смотреть онлайн Егор Вершинин - ПДД от А до Я [2020 г., Правила дорожного движения, mp4] бесплантно в хорошем качестве Описание:Узнайте, как легко изучить правила дорожного движения, а также понять все их тонкости, не читая нудную книжку и тонны макулатуры с ... 10 10 6
Торрент: Зарегистрирован [2021-09-05 17:22] · скачан: 39 раз
Статус: √ проверено
Размер: 4.22 GB
Как cкачать? Как скачать Егор Вершинин - ПДД от А до Я через торрент | UTorrent



Последний раз редактировалось: urapavel (2021-09-06 20:57), всего редактировалось 10 раз(а)

28-11-2019 20:33  

Отключить всю рекламу на сайте

05-09-2021 18:28 Егор Вершинин - ПДД от А до Я Скачать торрент  

Топик был перенесен из форума Видеоуроки в форум Для пробных / тестовых / неоформленых раздач


bober100pb.wtf



06-09-2021 09:04 Егор Вершинин - ПДД от А до Я Скачать торрент  

спасибо!!! pb.wtf



    Дорогой пользователь! Огромная просьба, поблагодарите релизера, оцените раздачу и оставьте свои комментарий, если Вы скачали Егор Вершинин - ПДД от А до Я через торрент бесплатно!
    Комментировать посты могут только пользователи прошедшие не сложную регистрацию
    Показать сообщения:    

    Егор Вершинин - ПДД от А до Я через торрент
    Скачать бесплатно Егор Вершинин - ПДД от А до Я
    Егор Вершинин - ПДД от А до Я скачать торрент
    Егор Вершинин - ПДД от А до Я смотреть онлайн
    Cкачать фильм Егор Вершинин - ПДД от А до Я бесплатно
    Егор Вершинин - ПДД от А до Я скачать торрент в хорошем качестве
    Егор Вершинин - ПДД от А до Я смотреть онлайн бесплатно в хорошем качестве


    Вы не можете начинать темы
    Вы не можете отвечать на сообщения
    Вы не можете редактировать свои сообщения
    Вы не можете удалять свои сообщения
    Вы не можете голосовать в опросах
    Вы не можете прикреплять файлы к сообщениям
    Вы можете скачивать файлы