Присоединяйтесь к нам в Telegram!, здесь всегда актуальный адрес сайта, оперативная поддержка и многое другое!!

>

5.9

iTunes

7.4

iTunes

9.4

1 сезон

1

7.4

2 сезон

7.2

iTunes

7.3

1 сезон

13

6.1

iTunes

8.3

Пиратка

30

ULTIMATE

pack

9.9

Лицензия

ВАЖНО

ИГРА 18+

pack

7.3

RePack

MK11

7.7

RePack

jed

7.8

RePack

fifa19

8.5

RePack

RDR2

RePack

NEED FOR SPEED™ PAYBACK

5 сезон

9 сезон

Бесстыжие 9 сезон

Все сериалы

все сериалы на PB.wtf

RePack

FAR CRY 5

Anonymous, доброй ночи, мы катастрофически не успеваем собрать деньги на оплату серверов, помогите нам пожалуйста 5,10,15р., для нас важна любая помощь . В качестве благодарности мы отключим Вам всю рекламу на сайте (укажите свой ник в строку Ваше имя)!

×
  
Magnet ссылка

Цензор / Censor (Прано Бэйли-Бонд) [2021 г., ужасы, детектив, WEB-DLRip, Дубляж "iTunes"](AMAZON) pb.wtf

Цензор через торрент pb.wtf

Размер: 704 MB | Добавлен: 2 мес. 29 д. назад | Торрент скачан:7 раз
Смотреть онлайн Цензор | Скачать    Ребята, помогите собрать деньги на оплату серверов!!!

06-09-2021 18:40 Цензор Скачать торрент  

Цензор / Censor
Год выпуска: 2021
Страна: Великобритания / Silver Salt Films ,BFI Film Fund ,Ffilm Cymru Wales
Жанр: ужасы, детектив
Продолжительность: 01:23:38
Перевод: Дубляж (iTunes)
«Реальность изменению не подлежит»

Режиссер: Прано Бэйли-Бонд

rating

В ролях: Нив Алгар, Майкл Смайли, Николас Барнс, Винсент Франклин, София Ла Порта, Адриан Шиллер, Клер Холман, Эндрю Хавилл, Фелисити Монтегю, Дэнни Ли Уайнтер

Описание: Британия 1980-х. Сдержанная Энид работает в цензурном комитете, где добросовестно режет фильмы категории Б, оберегая публику от кровавых деталей и шокирующих подробностей. Уже много лет она не может смириться с пропажей сестры и продолжает надеяться найти её, хотя родители уже оформили сертификат о смерти. Когда в очередном фильме Энид видит сцену, буквально повторяющую события её собственного прошлого, она решает разыскать продюсера и разузнать у него о фильме побольше.

Качество: WEB-DLRip
Формат: AVI
Видео кодек: DivX
Аудио кодек: MP3
Видео: 640x272 (2.35:1), 23.976 fps, DivX Codec 4.x ~1039 kbps avg, 0.25 bit/pixel
Аудио: 48 kHz, MPEG Layer 3, 2 ch, ~128.00 kbps avg

Общее
Полное имя : G:\ФИЛЬМЫ\Цензор.2021.D.WEB-DLRip(AMAZON).avi
Формат : AVI
Формат/Информация : Audio Video Interleave
Размер файла : 704 Мбайт
Продолжительность : 1 ч. 23 м.
Общий поток : 1 177 Кбит/сек
Программа кодирования : VirtualDubMod 1.5.10.3 | www.virtualdub-fr.org || (build 2550/release)
Библиотека кодирования : VirtualDubMod build 2550/release

Видео
Идентификатор : 0
Формат : MPEG-4 Visual
Профиль формата : Advanced Simple@L5
Настройки формата : BVOP2
Параметр BVOP формата : 2
Параметр QPel формата : Нет
Параметр GMC формата : Без точки перехода
Параметр матрицы формата : Default (MPEG)
Идентификатор кодека : DIVX
Идентификатор кодека/Информация : Project Mayo
Идентификатор кодека/Подсказка : DivX 4
Продолжительность : 1 ч. 23 м.
Битрейт : 1 039 Кбит/сек
Ширина : 640 пикселей
Высота : 272 пикселя
Соотношение сторон : 2,35:1
Частота кадров : 23,976 (24000/1001) кадра/сек
Цветовое пространство : YUV
Субдискретизация насыщенности : 4:2:0
Битовая глубина : 8 бит
Тип развёртки : Прогрессивная
Метод сжатия : С потерями
Бит/(Пиксели*Кадры) : 0.249
Размер потока : 622 Мбайт (88%)
Библиотека кодирования : XviD 1.2.1 (UTC 2008-12-04)

Аудио
Идентификатор : 1
Формат : MPEG Audio
Версия формата : Version 1
Профиль формата : Layer 3
Настройки формата : Joint stereo / MS Stereo
Идентификатор кодека : 55
Идентификатор кодека/Подсказка : MP3
Продолжительность : 1 ч. 23 м.
Вид битрейта : Постоянный
Битрейт : 128 Кбит/сек
Каналы : 2 канала
Частота : 48,0 КГц
Частота кадров : 41,667 кадра/сек (1152 SPF)
Метод сжатия : С потерями
Размер потока : 76,6 Мбайт (11%)
Выравнивание : Соединение по промежуткам
Продолжительность промежутка : 42 мс. (1,00 видеокадр)
Время предзагрузки промежутка : 504 мс.
Библиотека кодирования : LAME3.99r
Настройки программы : -m j -V 4 -q 2 -lowpass 17 -b 128

Report created by : MediaInfoLib - v21.03
Report created on : UTC 2021-09-06 17:49:32

pb.wtf



Скачать Цензор через торрент https://pic1.kartinco.top/new/img/2021-09/06/f2uq0jt2vyu49zwowtonp1u2u.jpg Скачать, смотреть онлайн Цензор бесплантно в хорошем качестве Описание: Британия 1980-х. Сдержанная Энид работает в цензурном комитете, где добросовестно режет фильмы категории Б, оберегая публику от ... 10 10 1
Торрент: Зарегистрирован [2021-09-06 18:40] · скачан: 7 раз
Статус: √ проверено
Размер: 704 MB
Как cкачать? Как скачать Цензор через торрент | UTorrent

% Раздел Тема Автор DL S | L
Фильмы (WEB-DL 720p, 1080p) [ 5.67 GB ] Цензор / Censor [2021 WEB-DL 1080p] bober100 Скачать
3 | 0
Фильмы 2021 [DVDrip, WEB-DLRip, HDrip] (DUB, MVO) [ 2.05 GB ] Цензор / Censor [2021 WEB-DLRip-AVC] от MediaBit Lithuania Скачать
2 | 0
Фильмы 2021 [DVDrip, WEB-DLRip, HDrip] (DUB, MVO) [ 1.37 GB ] Цензор / Censor [2021 WEB-DLRip] bober100 Скачать
1 | 0
Фильмы (WEB-DL 720p, 1080p) [ 1.89 GB ] Цензор / Censor [2021 WEB-DLRip 720p] killermax2013 Скачать
2 | 0
Классические порно фильмы [ 1.67 GB ] Все что вы хотели увидеть в голливудском фильме но цензоры побоялись показать вам / Everything You Ever Wanted to See in a Hollywood Movie But the Censors Were Afraid to Show [1976 Classic Comedy Feature WEB-DL 720p Оригинальный] nn99nn Скачать
1 | 2

28-11-2019 20:33  

Отключить всю рекламу на сайте

    Дорогой пользователь! Огромная просьба, поблагодарите релизера, оцените раздачу и оставьте свои комментарий, если Вы скачали Цензор через торрент бесплатно!
    Комментировать посты могут только пользователи прошедшие не сложную регистрацию
    Показать сообщения:    

    Цензор через торрент
    Скачать бесплатно Цензор
    Цензор скачать торрент
    Цензор смотреть онлайн
    Cкачать фильм Цензор бесплатно
    Цензор скачать торрент в хорошем качестве
    Цензор смотреть онлайн бесплатно в хорошем качестве


    Вы не можете начинать темы
    Вы не можете отвечать на сообщения
    Вы не можете редактировать свои сообщения
    Вы не можете удалять свои сообщения
    Вы не можете голосовать в опросах
    Вы не можете прикреплять файлы к сообщениям
    Вы можете скачивать файлы