>

5.6

iTunes

6.1

MVO

5.7

MVO

1

7.4

1 сезон

6.8

iTunes

7.2

1 сезон

13

6.7

1 сезон

8.3

RePack

30

Deluxe

pack

9.9

Лицензия

ВАЖНО

ИГРА 18+

pack

7.3

RePack

MK11

7.7

RePack

jed

7.8

RePack

fifa19

8.5

RePack

RDR2

RePack

NEED FOR SPEED™ PAYBACK

4 сезон

9 сезон

Бесстыжие 9 сезон

Все сериалы

все сериалы на PB.wtf

RePack

FAR CRY 5

Anonymous, доброй ночи, мы катастрофически не успеваем собрать деньги на оплату серверов, помогите нам пожалуйста 5,10,15р., для нас важна любая помощь . В качестве благодарности мы отключим Вам всю рекламу на сайте (укажите свой ник в строку Ваше имя)!

×
  
Magnet ссылка

Шугалей 3 (Михаил Вассербаум) [2021, Боевик, приключения, HDTV 1080i] pb.wtf

Шугалей 3 через торрент pb.wtf

Раздают: 9 [ 2 KB/s ]
Размер: 4.21 GB | Добавлен: 18 д. назад | Торрент скачан:243 раза
Смотреть онлайн Шугалей 3 | Скачать    Ребята, помогите собрать деньги на оплату серверов!!!

07-09-2021 01:07 Шугалей 3 Скачать торрент  

Шугалей 3
Год выпуска: 2021
Страна: Россия, Тунис
Выпущено: Производство ООО "Кино альянс", ООО "Дурум"
Жанр: Боевик, приключения
Продолжительность: 01:32:25
Перевод: Не требуется
Субтитры: отсутствуют

Режиссер: Михаил Вассербаум



В ролях: Кирилл Полухин, Олег Абалян, Алексей Кравченко, Евгений Терских, Владимир Петров (VIII), Екатерина Решетникова, Самвел Мужикян, Дмитрий Сутырин, Сергей Яценюк, Максим Шугалей, Виталий Такс, Николай Иванов (VII), Федор Смольянинов, Михаил Богданов, Алексей Удальцов, Станислав Концевич, Радик Галиуллин, Татьяна Буланова, Роман Притула

Описание: Максим Шугалей и Самер Суэйфан после долгого плена в ливийской тюрьме "Митига" наконец-то возвращаются в Россию. Несколько месяцев спустя на Шугалея выходит бывший управляющий банка в Триполи Фарид и предлагает встретиться в Египте — у него появилась новая информация о террористах в Ливии. Но встреча друзей в Каире так и не состоится. Чтобы помочь Фариду избежать собственной судьбы, Максиму придется на время отложить свои планы…

Качество: HDTV 1080i
Формат: TS

Видео: MPEG-4 AVC, ~ 6007 Кбит/с, 1920x1080, 25 кадр/с
Аудио: MP2, 2 ch, 192 Кбит/с
скриншот  скриншот  скриншот  скриншот  

General
ID : 1 (0x1)
Complete name : C:Шугалей.s03.(2021).HDTV.(1080i).by.Nicodem.Files-x.ts
Format : MPEG-TS
File size : 4.21 GiB
Duration : 1h 32mn
Overall bit rate : 6 523 Kbps
Maximum Overall bit rate : 35.5 Mbps

Video
ID : 4113 (0x1011)
Menu ID : 1 (0x1)
Format : AVC
Format/Info : Advanced Video Codec
Format profile : Main@L4.1
Format settings, CABAC : Yes
Format settings, ReFrames : 1 frame
Codec ID : 27
Duration : 1h 32mn
Bit rate mode : Variable
Bit rate : 6 007 Kbps
Maximum bit rate : 40.0 Mbps
Width : 1 920 pixels
Height : 1 080 pixels
Display aspect ratio : 16:9
Frame rate : 25.000 fps
Color space : YUV
Chroma subsampling : 4:2:0
Bit depth : 8 bits
Scan type : Progressive
Bits/(Pixel*Frame) : 0.116
Stream size : 3.88 GiB (92%)
Language : English

Audio
ID : 4352 (0x1100)
Menu ID : 1 (0x1)
Format : MPEG Audio
Format version : Version 1
Format profile : Layer 2
Codec ID : 4
Duration : 1h 32mn
Bit rate mode : Constant
Bit rate : 192 Kbps
Channel(s) : 2 channels
Sampling rate : 48.0 KHz
Compression mode : Lossy
Stream size : 127 MiB (3%)

pb.wtf



Скачать Шугалей 3 через торрент https://i3.imageban.ru/out/2021/09/04/b433b837abc4a4cd50f9bcca33f4d6ab.jpg Скачать, смотреть онлайн Шугалей 3 бесплантно в хорошем качестве Описание: Максим Шугалей и Самер Суэйфан после долгого плена в ливийской тюрьме "Митига" наконец-то возвращаются в Россию. Несколько ... 7.3 10 18
Info! Золотая раздача, скачанное не засчитывается.
Торрент: Зарегистрирован [2021-09-07 01:07] · скачан: 243 раз
Статус: √ проверено
Размер: 4.21 GB
Как cкачать? Как скачать Шугалей 3 через торрент | UTorrent

% Раздел Тема Автор DL S | L
Наши новые фильмы 2020 - 2021 [ 719 MB ] Шугалей 3 [2021 WEB-DLRip Русский] coc900 Скачать
4 | 0
Наши новые фильмы 2020 - 2021 [ 1.37 GB ] Шугалей 3 [2021 HDTVRip] bober100 Скачать
9 | 0

28-11-2019 20:33  

Отключить всю рекламу на сайте

07-09-2021 16:35 Шугалей 3 Скачать торрент  

Неплохой, интересный фильм получился. Держит в напряжении до последних кадров. Лично мне понравился!pb.wtf



08-09-2021 10:04 Шугалей 3 Скачать торрент  

это вроде 2 частьpb.wtf



08-09-2021 18:52 Шугалей 3 Скачать торрент  

Во у Булановой то как поперло!Ах-ха-ха !
Еще и хватает времени агитировать за
человека-навоза по всем федеральным телеканалам !pb.wtf



13-09-2021 21:50 Шугалей 3 Скачать торрент  

Пропагандонская чушь, муть, компот.pb.wtf



    Дорогой пользователь! Огромная просьба, поблагодарите релизера, оцените раздачу и оставьте свои комментарий, если Вы скачали Шугалей 3 через торрент бесплатно!
    Комментировать посты могут только пользователи прошедшие не сложную регистрацию
    Показать сообщения:    

    Шугалей 3 через торрент
    Скачать бесплатно Шугалей 3
    Шугалей 3 скачать торрент
    Шугалей 3 смотреть онлайн
    Cкачать фильм Шугалей 3 бесплатно
    Шугалей 3 скачать торрент в хорошем качестве
    Шугалей 3 смотреть онлайн бесплатно в хорошем качестве


    Вы не можете начинать темы
    Вы не можете отвечать на сообщения
    Вы не можете редактировать свои сообщения
    Вы не можете удалять свои сообщения
    Вы не можете голосовать в опросах
    Вы не можете прикреплять файлы к сообщениям
    Вы можете скачивать файлы