Присоединяйтесь к нам в Telegram!, здесь всегда актуальный адрес сайта, оперативная поддержка и многое другое!!

>

5.9

iTunes

7.4

iTunes

9.4

1 сезон

1

7.4

2 сезон

7.2

iTunes

7.3

1 сезон

13

6.1

iTunes

8.3

GOG

30

ULTIMATE

pack

9.9

Лицензия

ВАЖНО

ИГРА 18+

pack

7.3

RePack

MK11

7.7

RePack

jed

7.8

RePack

fifa19

8.5

RePack

RDR2

RePack

NEED FOR SPEED™ PAYBACK

5 сезон

9 сезон

Бесстыжие 9 сезон

Все сериалы

все сериалы на PB.wtf

RePack

FAR CRY 5

Anonymous, доброе утро, мы катастрофически не успеваем собрать деньги на оплату серверов, помогите нам пожалуйста 5,10,15р., для нас важна любая помощь . В качестве благодарности мы отключим Вам всю рекламу на сайте (укажите свой ник в строку Ваше имя)!

×
  
Magnet ссылка

Оборотни внутри / Werewolves Within (Джош Рубен) [2021, Ужасы, комедия, детектив, HDRip-AVC] DUB [iTunes] от MediaBit pb.wtf

Оборотни внутри через торрент pb.wtf

Раздают: 2 [ 0 KB/s ]
Размер: 2.05 GB | Добавлен: 2 мес. 24 д. назад | Торрент скачан:46 раз
Смотреть онлайн Оборотни внутри | Скачать    Ребята, помогите собрать деньги на оплату серверов!!!

07-09-2021 13:56 Оборотни внутри Скачать торрент  


Оборотни внутри / Werewolves Within
Информация о фильме:
Название: Оборотни внутри
Оригинальное название: Werewolves Within
Год выхода: 2021
Жанр: Ужасы, комедия, детектив
Режиссер: Джош Рубен
В ролях: Сэм Ричардсон, Милана Вайнтруб, Джордж Бейзил, Сара Бёрнс, Майкл Чернус, Кэти Куртин, Уэйн Дювалл, Харви Гильен, Ребекка Хендерсон, Шайен Джексон

Описание: Мягкий парень Финн Уилер назначен новым рейнджером в захолустный северный городок Биверфилд. Он знакомится с жителями, которые оказываются один чуднее другого, и только девушка-почтальон Сесили кажется ему адекватным человеком, и даже больше — родной душой. Когда Биверфилд накрывает сильный снегопад и отключаются все коммуникации, выясняется, что кто-то не только убил собачку миссис Андертон, но и повредил генераторы. Местные и приехавшие по вопросу проведения в эту глушь газопровода собираются в гостевом доме и вскоре приходят к выводу, что среди них затаился хитрый оборотень.



Страна: США
Студия: Ubi Soft Entertainment, Ubisoft Motion Pictures, Vanishing Angle
Продолжительность: 01:36:38
Перевод: Дублированный - iTunes



Информация о файле:
Кодек: AVC
Формат: MKV
Качество: HDRip-AVC
Видео: MPEG-4 AVC, 1024x428, 23.976 fps, 2203 kb/s
Аудио RU: AC3, 6 ch, 48 kHz, 384 kbps
Аудио EN: AC3, 6 ch, 48 kHz, 448 kbps
Субтитры: Русские (Forced, full), английские

x264 info: frame I:1094 Avg QP:10.60 size: 93377
x264 info: frame P:28141 Avg QP:13.68 size: 26642
x264 info: frame B:109787 Avg QP:17.24 size: 6781
General
Unique ID : 213319283145391338502083623015132337528 (0xA07BCCACD9C98F3D04293765AC5A9578)
Complete name : D:\uTorrent\Рипы wolf1245\Werewolves.Within.2021,DUB.iTunes.WEB-DLRip-AVC.[=wolf1245.MediaBit=].mkv
Format : Matroska
Format version : Version 4
File size : 2.05 GiB
Duration : 1 h 36 min
Overall bit rate : 3 036 kb/s
Movie name : Werewolves.Within.2021,DUB.iTunes.WEB-DLRip-AVC.[=wolf1245.MediaBit=]
Encoded date : UTC 2021-09-07 13:34:05
Writing application : mkvmerge v61.0.0 ('So') 64-bit
Writing library : libebml v1.4.2 + libmatroska v1.6.4

Video
ID : 1
Format : AVC
Format/Info : Advanced Video Codec
Format profile : High@L4.1
Format settings : CABAC / 14 Ref Frames
Format settings, CABAC : Yes
Format settings, Reference frames : 14 frames
Codec ID : V_MPEG4/ISO/AVC
Duration : 1 h 36 min
Bit rate : 2 203 kb/s
Width : 1 024 pixels
Height : 428 pixels
Display aspect ratio : 2.40:1
Frame rate mode : Constant
Frame rate : 23.976 (24000/1001) FPS
Color space : YUV
Chroma subsampling : 4:2:0
Bit depth : 8 bits
Scan type : Progressive
Bits/(Pixel*Frame) : 0.210
Stream size : 1.49 GiB (73%)
Title : -=[wolf1245.MediaBit]=-
Writing library : x264 core 161 r3020 d198931
Encoding settings : cabac=1 / ref=14 / deblock=1:-3:-2 / analyse=0x3:0x133 / me=umh / subme=11 / psy=1 / psy_rd=1.03:0.06 / mixed_ref=1 / me_range=48 / chroma_me=1 / trellis=2 / 8x8dct=1 / cqm=0 / deadzone=21,11 / fast_pskip=1 / chroma_qp_offset=-3 / threads=10 / lookahead_threads=2 / sliced_threads=0 / nr=0 / decimate=1 / interlaced=0 / bluray_compat=0 / constrained_intra=0 / bframes=12 / b_pyramid=2 / b_adapt=2 / b_bias=0 / direct=3 / weightb=1 / open_gop=0 / weightp=2 / keyint=240 / keyint_min=24 / scenecut=40 / intra_refresh=0 / rc_lookahead=60 / rc=2pass / mbtree=1 / bitrate=2203 / ratetol=1.0 / qcomp=0.60 / qpmin=0 / qpmax=69 / qpstep=4 / cplxblur=20.0 / qblur=0.5 / vbv_maxrate=50000 / vbv_bufsize=62500 / nal_hrd=none / filler=0 / ip_ratio=1.40 / aq=3:0.80
Language : English
Default : Yes
Forced : No

Audio #1
ID : 2
Format : AC-3
Format/Info : Audio Coding 3
Commercial name : Dolby Digital
Codec ID : A_AC3
Duration : 1 h 36 min
Bit rate mode : Constant
Bit rate : 384 kb/s
Channel(s) : 6 channels
Channel layout : L R C LFE Ls Rs
Sampling rate : 48.0 kHz
Frame rate : 31.250 FPS (1536 SPF)
Compression mode : Lossy
Stream size : 265 MiB (13%)
Title : iTunes | DUB
Language : Russian
Service kind : Complete Main
Default : Yes
Forced : No

Audio #2
ID : 3
Format : AC-3
Format/Info : Audio Coding 3
Commercial name : Dolby Digital
Codec ID : A_AC3
Duration : 1 h 36 min
Bit rate mode : Constant
Bit rate : 448 kb/s
Channel(s) : 6 channels
Channel layout : L R C LFE Ls Rs
Sampling rate : 48.0 kHz
Frame rate : 31.250 FPS (1536 SPF)
Compression mode : Lossy
Stream size : 310 MiB (15%)
Title : Original
Language : English
Service kind : Complete Main
Default : No
Forced : No

Text #1
ID : 4
Format : UTF-8
Codec ID : S_TEXT/UTF8
Codec ID/Info : UTF-8 Plain Text
Duration : 4 min 21 s
Bit rate : 9 b/s
Count of elements : 7
Stream size : 312 Bytes (0%)
Title : Forced
Language : Russian
Default : Yes
Forced : Yes

Text #2
ID : 5
Format : UTF-8
Codec ID : S_TEXT/UTF8
Codec ID/Info : UTF-8 Plain Text
Duration : 1 h 33 min
Bit rate : 107 b/s
Count of elements : 1438
Stream size : 73.8 KiB (0%)
Title : Full
Language : Russian
Default : No
Forced : No

Text #3
ID : 6
Format : UTF-8
Codec ID : S_TEXT/UTF8
Codec ID/Info : UTF-8 Plain Text
Duration : 40 min 59 s
Bit rate : 84 b/s
Count of elements : 703
Stream size : 25.4 KiB (0%)
Title : Full
Language : English
Default : No
Forced : No

Text #4
ID : 7
Format : UTF-8
Codec ID : S_TEXT/UTF8
Codec ID/Info : UTF-8 Plain Text
Duration : 41 min 48 s
Bit rate : 93 b/s
Count of elements : 735
Stream size : 28.6 KiB (0%)
Title : SDH
Language : English
Default : No
Forced : No

Menu
00:00:00.000 : :Chapter 01
00:09:32.489 : :Chapter 02
00:17:22.833 : :Chapter 03
00:26:47.397 : :Chapter 04
00:35:09.565 : :Chapter 05
00:42:14.824 : :Chapter 06
00:51:49.606 : :Chapter 07
01:02:56.439 : :Chapter 08
01:12:04.195 : :Chapter 09
01:19:09.036 : :Chapter 10
01:23:39.932 : :Chapter 11
01:30:17.329 : :Chapter 12
Релиз от: &

Автор релиза:
pb.wtf



Скачать Оборотни внутри через торрент https://i115.fastpic.org/big/2021/0906/16/530dec097b029b965abbc663727f9616.jpg Скачать, смотреть онлайн Оборотни внутри бесплантно в хорошем качестве Описание: Мягкий парень Финн Уилер назначен новым рейнджером в захолустный северный городок Биверфилд. Он знакомится с жителями, которые ... 10 10 3
Торрент: Зарегистрирован [2021-09-07 13:56] · скачан: 46 раз
Статус: √ проверено
Размер: 2.05 GB
Как cкачать? Как скачать Оборотни внутри через торрент | UTorrent

28-11-2019 20:33  

Отключить всю рекламу на сайте

    Дорогой пользователь! Огромная просьба, поблагодарите релизера, оцените раздачу и оставьте свои комментарий, если Вы скачали Оборотни внутри через торрент бесплатно!
    Комментировать посты могут только пользователи прошедшие не сложную регистрацию
    Показать сообщения:    

    Оборотни внутри через торрент
    Скачать бесплатно Оборотни внутри
    Оборотни внутри скачать торрент
    Оборотни внутри смотреть онлайн
    Cкачать фильм Оборотни внутри бесплатно
    Оборотни внутри скачать торрент в хорошем качестве
    Оборотни внутри смотреть онлайн бесплатно в хорошем качестве


    Вы не можете начинать темы
    Вы не можете отвечать на сообщения
    Вы не можете редактировать свои сообщения
    Вы не можете удалять свои сообщения
    Вы не можете голосовать в опросах
    Вы не можете прикреплять файлы к сообщениям
    Вы можете скачивать файлы