Присоединяйтесь к нам в Telegram!, здесь всегда актуальный адрес сайта, оперативная поддержка и многое другое!!

>

5.9

iTunes

7.4

iTunes

9.4

1 сезон

1

7.4

2 сезон

7.2

iTunes

7.3

1 сезон

13

6.1

iTunes

8.3

GOG

30

ULTIMATE

pack

9.9

Лицензия

ВАЖНО

ИГРА 18+

pack

7.3

RePack

MK11

7.7

RePack

jed

7.8

RePack

fifa19

8.5

RePack

RDR2

RePack

NEED FOR SPEED™ PAYBACK

5 сезон

9 сезон

Бесстыжие 9 сезон

Все сериалы

все сериалы на PB.wtf

RePack

FAR CRY 5

Anonymous, добрый день, мы катастрофически не успеваем собрать деньги на оплату серверов, помогите нам пожалуйста 5,10,15р., для нас важна любая помощь . В качестве благодарности мы отключим Вам всю рекламу на сайте (укажите свой ник в строку Ваше имя)!

×
  
Magnet ссылка

Цензор / Censor (Прано Бэйли-Бонд) [2021, Ужасы, WEB-DLRip-AVC] DUB [iTunes] от MediaBit pb.wtf

Цензор через торрент pb.wtf

Раздают: 1 [ 0 KB/s ]
Размер: 2.05 GB | Добавлен: 2 мес. 24 д. назад | Торрент скачан:57 раз
Смотреть онлайн Цензор | Скачать    Ребята, помогите собрать деньги на оплату серверов!!!

07-09-2021 16:06 Цензор Скачать торрент  


Цензор / Censor
Информация о фильме:
Название: Цензор
Оригинальное название: Censor
Год выхода: 2021
Жанр: Ужасы
Режиссер: Прано Бэйли-Бонд

В ролях: Нив Алгар, Майкл Смайли, Николас Барнс, Винсент Франклин, Софи Ла Порта, Адриан Шиллер, Клер Холман, Эндрю Хавилл, Фелисити Монтегю, Дэнни Ли Уайнтер

Описание: Британия 1980-х. Сдержанная Энид работает в цензурном комитете, где добросовестно режет фильмы категории Б, оберегая публику от кровавых деталей и шокирующих подробностей. Уже много лет она не может смириться с пропажей сестры и продолжает надеяться найти её, хотя родители уже оформили сертификат о смерти. Когда в очередном фильме Энид видит сцену, буквально повторяющую события её собственного прошлого, она решает разыскать продюсера и разузнать у него о фильме побольше.



Страна: Великобритания
Студия: Silver Salt Films, BFI Film Fund, Ffilm Cymru Wales
Продолжительность: 01:23:38
Перевод: Дублированный - iTunes



Информация о файле:
Кодек: AVC
Формат: MKV
Качество: WEB-DLRip-AVC
Видео: MPEG-4 AVC, 1024x428, 23.976 fps, 2675 kbps
Аудио RU: AC3, 6 ch, 48 kHz, 384 kbps
Аудио EN: AC3, 6 ch, 48 kHz, 448 kbps
Субтитры: Английские

x264 info: frame I:834 Avg QP:10.59 size: 77877
x264 info: frame P:21827 Avg QP:13.80 size: 28020
x264 info: frame B:97653 Avg QP:16.36 size: 10234
General
Unique ID : 181898635480559199855360611373021267588 (0x88D86723E608DA3C2C8E4D7C83420684)
Complete name : D:uTorrentРипы wolf1245Censor.2021.DUB.iTunes.WEB-DLRip-AVC.[=wolf1245.MediaBit=].mkv
Format : Matroska
Format version : Version 4
File size : 2.05 GiB
Duration : 1 h 23 min
Overall bit rate : 3 506 kb/s
Movie name : Censor.2021.DUB.iTunes.WEB-DLRip-AVC.[=wolf1245.MediaBit=]
Encoded date : UTC 2021-09-07 15:50:27
Writing application : mkvmerge v61.0.0 ('So') 64-bit
Writing library : libebml v1.4.2 + libmatroska v1.6.4
Video
ID : 1
Format : AVC
Format/Info : Advanced Video Codec
Format profile : High@L4.1
Format settings : CABAC / 14 Ref Frames
Format settings, CABAC : Yes
Format settings, Reference frames : 14 frames
Codec ID : V_MPEG4/ISO/AVC
Duration : 1 h 23 min
Bit rate : 2 675 kb/s
Width : 1 024 pixels
Height : 428 pixels
Display aspect ratio : 2.40:1
Frame rate mode : Constant
Frame rate : 23.976 (24000/1001) FPS
Color space : YUV
Chroma subsampling : 4:2:0
Bit depth : 8 bits
Scan type : Progressive
Bits/(Pixel*Frame) : 0.255
Stream size : 1.56 GiB (76%)
Title : -=[wolf1245.MediaBit]=-
Writing library : x264 core 161 r3020 d198931
Encoding settings : cabac=1 / ref=14 / deblock=1:-3:-3 / analyse=0x3:0x133 / me=umh / subme=11 / psy=1 / psy_rd=1.03:0.05 / mixed_ref=1 / me_range=48 / chroma_me=1 / trellis=2 / 8x8dct=1 / cqm=0 / deadzone=21,11 / fast_pskip=1 / chroma_qp_offset=-3 / threads=10 / lookahead_threads=2 / sliced_threads=0 / nr=0 / decimate=1 / interlaced=0 / bluray_compat=0 / constrained_intra=0 / bframes=12 / b_pyramid=2 / b_adapt=2 / b_bias=0 / direct=3 / weightb=1 / open_gop=0 / weightp=2 / keyint=240 / keyint_min=24 / scenecut=40 / intra_refresh=0 / rc_lookahead=60 / rc=2pass / mbtree=1 / bitrate=2675 / ratetol=1.0 / qcomp=0.60 / qpmin=0 / qpmax=69 / qpstep=4 / cplxblur=20.0 / qblur=0.5 / vbv_maxrate=50000 / vbv_bufsize=62500 / nal_hrd=none / filler=0 / ip_ratio=1.40 / aq=3:0.80
Language : English
Default : Yes
Forced : No
Color range : Limited
Color primaries : BT.709
Transfer characteristics : BT.709
Matrix coefficients : BT.709
Audio #1
ID : 2
Format : AC-3
Format/Info : Audio Coding 3
Commercial name : Dolby Digital
Codec ID : A_AC3
Duration : 1 h 23 min
Bit rate mode : Constant
Bit rate : 384 kb/s
Channel(s) : 6 channels
Channel layout : L R C LFE Ls Rs
Sampling rate : 48.0 kHz
Frame rate : 31.250 FPS (1536 SPF)
Compression mode : Lossy
Stream size : 230 MiB (11%)
Title : DUB (iTunes)
Language : Russian
Service kind : Complete Main
Default : Yes
Forced : No
Audio #2
ID : 3
Format : AC-3
Format/Info : Audio Coding 3
Commercial name : Dolby Digital
Codec ID : A_AC3
Duration : 1 h 23 min
Bit rate mode : Constant
Bit rate : 448 kb/s
Channel(s) : 6 channels
Channel layout : L R C LFE Ls Rs
Sampling rate : 48.0 kHz
Frame rate : 31.250 FPS (1536 SPF)
Compression mode : Lossy
Stream size : 268 MiB (13%)
Title : Original
Language : English
Service kind : Complete Main
Default : No
Forced : No
Text
ID : 4
Format : UTF-8
Codec ID : S_TEXT/UTF8
Codec ID/Info : UTF-8 Plain Text
Duration : 1 h 17 min
Bit rate : 47 b/s
Count of elements : 984
Stream size : 26.6 KiB (0%)
Title : English (SDH)
Language : English
Default : No
Forced : No
Релиз от: &
Автор релиза:
pb.wtf



Скачать Цензор через торрент https://i6.imageban.ru/out/2021/09/05/a36ea8c1079877bee779dea36eb20b65.png Скачать, смотреть онлайн Цензор бесплантно в хорошем качестве Описание: Британия 1980-х. Сдержанная Энид работает в цензурном комитете, где добросовестно режет фильмы категории Б, оберегая публику от ... 10 10 4
Торрент: Зарегистрирован [2021-09-07 16:06] · скачан: 57 раз
Статус: √ проверено
Размер: 2.05 GB
Как cкачать? Как скачать Цензор через торрент | UTorrent

28-11-2019 20:33  

Отключить всю рекламу на сайте

    Дорогой пользователь! Огромная просьба, поблагодарите релизера, оцените раздачу и оставьте свои комментарий, если Вы скачали Цензор через торрент бесплатно!
    Комментировать посты могут только пользователи прошедшие не сложную регистрацию
    Показать сообщения:    

    Цензор через торрент
    Скачать бесплатно Цензор
    Цензор скачать торрент
    Цензор смотреть онлайн
    Cкачать фильм Цензор бесплатно
    Цензор скачать торрент в хорошем качестве
    Цензор смотреть онлайн бесплатно в хорошем качестве


    Вы не можете начинать темы
    Вы не можете отвечать на сообщения
    Вы не можете редактировать свои сообщения
    Вы не можете удалять свои сообщения
    Вы не можете голосовать в опросах
    Вы не можете прикреплять файлы к сообщениям
    Вы можете скачивать файлы