Присоединяйтесь к нам в Telegram!, здесь всегда актуальный адрес сайта, оперативная поддержка и многое другое!!

>

5.9

iTunes

7.4

iTunes

9.4

1 сезон

1

7.4

2 сезон

7.2

iTunes

7.3

1 сезон

13

6.1

iTunes

8.3

Пиратка

30

ULTIMATE

pack

9.9

Лицензия

ВАЖНО

ИГРА 18+

pack

7.3

RePack

MK11

7.7

RePack

jed

7.8

RePack

fifa19

8.5

RePack

RDR2

RePack

NEED FOR SPEED™ PAYBACK

5 сезон

9 сезон

Бесстыжие 9 сезон

Все сериалы

все сериалы на PB.wtf

RePack

FAR CRY 5

Anonymous, доброй ночи, мы катастрофически не успеваем собрать деньги на оплату серверов, помогите нам пожалуйста 5,10,15р., для нас важна любая помощь . В качестве благодарности мы отключим Вам всю рекламу на сайте (укажите свой ник в строку Ваше имя)!

×
  
Magnet ссылка

Бесконечность / Infinite (Антуан Фукуа) [2021 г., Фантастика, боевик, WEB-DLRip, Дубляж "iTunes"] pb.wtf

Бесконечность через торрент pb.wtf

Размер: 716 MB | Добавлен: 2 мес. 27 д. назад | Торрент скачан:19 раз
Смотреть онлайн Бесконечность | Скачать    Ребята, помогите собрать деньги на оплату серверов!!!

08-09-2021 18:43 Бесконечность Скачать торрент  

Бесконечность / Infinite
Год выпуска: 2021
Страна: США / Paramount Pictures ,New Republic Pictures ,Di Bonaventura Pictures
Жанр: Фантастика, боевик
Продолжительность: 01:46:37
Перевод: Дубляж (iTunes)
Субтитры: Русские форсированные - вшитые

Режиссер: Антуан Фукуа

rating

В ролях: Марк Уолберг, Чиветель Эджиофор, Софи Куксон, Дилан О’Брайен, Джейсон Манцукас, Руперт Френд, Тоби Джонс, Йоуханнес Хёйкюр Йоуханнессон, Лиз Карр, Каэ Александр

Описание: С самого детства Эван страдает от странных видений и реалистичных снов, знает вещи, которые никогда не запоминал, и имеет непонятно откуда взявшиеся навыки. С диагнозом «шизофрения» он влачит жалкое существование и зависит от таблеток. Пытаясь раздобыть очередную партию, Эван вздорит с дилером, устраивает заварушку и попадает в полицию. А там на него выходит загадочный мужчина, который утверждает, что знает его очень давно - ещё со Второй Пунической войны.

Качество: WEB-DLRip
Формат: AVI
Видео кодек: DivX
Аудио кодек: MP3
Видео: 640x272 (2.35:1), 23.976 fps, DivX Codec 4.x ~801 kbps avg, 0.19 bit/pixel
Аудио: 48 kHz, MPEG Layer 3, 2 ch, ~128.00 kbps avg

Общее
Полное имя : G:\ФИЛЬМЫ\Бесконечность.2O21.D.WEB-DLRip.avi
Формат : AVI
Формат/Информация : Audio Video Interleave
Размер файла : 716 Мбайт
Продолжительность : 1 ч. 46 м.
Общий поток : 939 Кбит/сек
Программа кодирования : VirtualDubMod 1.5.10.3 | www.virtualdub-fr.org || (build 2550/release)
Библиотека кодирования : VirtualDubMod build 2550/release

Видео
Идентификатор : 0
Формат : MPEG-4 Visual
Профиль формата : Advanced Simple@L5
Настройки формата : BVOP2
Параметр BVOP формата : 2
Параметр QPel формата : Нет
Параметр GMC формата : Без точки перехода
Параметр матрицы формата : Default (MPEG)
Идентификатор кодека : DIVX
Идентификатор кодека/Информация : Project Mayo
Идентификатор кодека/Подсказка : DivX 4
Продолжительность : 1 ч. 46 м.
Битрейт : 802 Кбит/сек
Ширина : 640 пикселей
Высота : 272 пикселя
Соотношение сторон : 2,35:1
Частота кадров : 23,976 (24000/1001) кадра/сек
Цветовое пространство : YUV
Субдискретизация насыщенности : 4:2:0
Битовая глубина : 8 бит
Тип развёртки : Прогрессивная
Метод сжатия : С потерями
Бит/(Пиксели*Кадры) : 0.192
Размер потока : 612 Мбайт (85%)
Библиотека кодирования : XviD 1.2.1 (UTC 2008-12-04)

Аудио
Идентификатор : 1
Формат : MPEG Audio
Версия формата : Version 1
Профиль формата : Layer 3
Настройки формата : Joint stereo / MS Stereo
Идентификатор кодека : 55
Идентификатор кодека/Подсказка : MP3
Продолжительность : 1 ч. 46 м.
Вид битрейта : Постоянный
Битрейт : 128 Кбит/сек
Каналы : 2 канала
Частота : 48,0 КГц
Частота кадров : 41,667 кадра/сек (1152 SPF)
Метод сжатия : С потерями
Размер потока : 97,4 Мбайт (14%)
Выравнивание : Соединение по промежуткам
Продолжительность промежутка : 42 мс. (1,00 видеокадр)
Время предзагрузки промежутка : 504 мс.
Библиотека кодирования : LAME3.99r
Настройки программы : -m j -V 4 -q 2 -lowpass 17 -b 128

Report created by : MediaInfoLib - v21.03
Report created on : UTC 2021-09-08 18:15:51

pb.wtf



Скачать Бесконечность через торрент https://pic1.kartinco.top/new/img/2021-09/08/s95tasu2kmy93wog5nx686b05.jpg Скачать, смотреть онлайн Бесконечность бесплантно в хорошем качестве Описание: С самого детства Эван страдает от странных видений и реалистичных снов, знает вещи, которые никогда не запоминал, и имеет ... 10 10 3
Торрент: Зарегистрирован [2021-09-08 18:43] · скачан: 19 раз
Статус: √ проверено
Размер: 716 MB
Как cкачать? Как скачать Бесконечность через торрент | UTorrent

% Раздел Тема Автор DL S | L
Фильмы (WEB-DL 720p, 1080p) [ 6.68 GB ] Бесконечность / Infinite [2021 WEB-DL 1080p] DUB [КиноПоиск HD] bober100 Скачать
10 | 0
Фильмы 2021 [DVDrip, WEB-DLRip, HDrip] (DUB, MVO) [ 1.46 GB ] Бесконечность / Infinite [2021 WEB-DLRip] DUB [КиноПоиск HD] bober100 Скачать
7 | 0
Фильмы 2021 [DVDrip, WEB-DLRip, HDrip] (DUB, MVO) [ 1.46 GB ] Бесконечность / Infinite [2021 WEB-DLRip] killermax2013 Скачать
6 | 0
Фильмы 2021 [DVDrip, WEB-DLRip, HDrip] (DUB, MVO) [ 1.46 GB ] Бесконечность / Infinite [2021 WEB-DLRip] - [IVI] Twi7ter Скачать
125 | 5
Фильмы (WEB-DL 720p, 1080p) [ 6.63 GB ] Бесконечность / Infinite [2021 WEB-DL 1080p] MVO [HDRezka Studio] bober100 Скачать
7 | 0
Аниме [HD 720p, 1080p] [ 4.59 GB ] Обитель зла: Бесконечная тьма / Resident Evil: Infinite Darkness / Сезон: 1 / Серии: 1-4 из 4 [2021 Аниме мультфильм WEB-DL 1080p] MVO [AlexFilm] bober100 Скачать
4 | 0
Аниме [HD 720p, 1080p] [ 2.78 GB ] Обитель зла: Бесконечная тьма / Resident Evil: Infinite Darkness / Сезон: 1 / Серии: 1-4 из 4 [2021 WEBRip 720p] [MVO] + [Ukr MVO] killermax2013 Скачать
3 | 0

28-11-2019 20:33  

Отключить всю рекламу на сайте

    Дорогой пользователь! Огромная просьба, поблагодарите релизера, оцените раздачу и оставьте свои комментарий, если Вы скачали Бесконечность через торрент бесплатно!
    Комментировать посты могут только пользователи прошедшие не сложную регистрацию
    Показать сообщения:    

    Бесконечность через торрент
    Скачать бесплатно Бесконечность
    Бесконечность скачать торрент
    Бесконечность смотреть онлайн
    Cкачать фильм Бесконечность бесплатно
    Бесконечность скачать торрент в хорошем качестве
    Бесконечность смотреть онлайн бесплатно в хорошем качестве


    Вы не можете начинать темы
    Вы не можете отвечать на сообщения
    Вы не можете редактировать свои сообщения
    Вы не можете удалять свои сообщения
    Вы не можете голосовать в опросах
    Вы не можете прикреплять файлы к сообщениям
    Вы можете скачивать файлы