Anonymous, добрый день, присоединяйтесь к нам в Telegram!, здесь всегда актуальный адрес сайта, оперативная поддержка и многое другое!

>

5.6

iTunes

7.4

iTunes

5.7

MVO

1

7.7

1 сезон

6.8

iTunes

7.3

1 сезон

13

6.7

1 сезон

8.3

RePack

30

ULTIMATE

pack

9.9

Лицензия

ВАЖНО

ИГРА 18+

pack

7.3

RePack

MK11

7.7

RePack

jed

7.8

RePack

fifa19

8.5

RePack

RDR2

RePack

NEED FOR SPEED™ PAYBACK

4 сезон

9 сезон

Бесстыжие 9 сезон

Все сериалы

все сериалы на PB.wtf

RePack

FAR CRY 5

Anonymous, добрый день, мы катастрофически не успеваем собрать деньги на оплату серверов, помогите нам пожалуйста 5,10,15р., для нас важна любая помощь . В качестве благодарности мы отключим Вам всю рекламу на сайте (укажите свой ник в строку Ваше имя)!

×
  
Magnet ссылка

Контакт / Сезон: 1 / Серии: 1-9 из 9 (Евгений Стычкин, Нурбек Эген) [2021, Драма, WEBRip, (Версия 18+)] pb.wtf

Контакт через торрент pb.wtf

Раздают: 22 [ 2 MB/s ] Качают: 5 [ 0 KB/s ]
Размер: 5.99 GB | Добавлен: 11 д. назад | Торрент скачан:117 раз
Смотреть онлайн Контакт | Скачать    Ребята, помогите собрать деньги на оплату серверов!!!

08-09-2021 21:59 Контакт Скачать торрент  

Контакт
Год выпуска: 2021
Страна: Россия
Студия: Good Story Media, «Среда»
Жанр: Драма
Продолжительность: ~ 00:54:00 серия
Перевод: Не требуется
Субтитры: отсутствуют
Версия 18+.

Режиссер: Евгений Стычкин, Нурбек Эген



В ролях: Павел Майков, Ирина Паутова, Равшана Куркова, Алексей Лукин, Дмитрий Мальков, Фёдор Федосеев, Карина Александрова (II), Вильма Кутавичюте, Алексей Агранович, Роман Маякин, Сергей Гилёв, Влада Лукина, Максим Виторган, Юрий Кузнецов

Описание: Глеб Барнашов — крутой опер, но разжалован в инспекторы по делам несовершеннолетних. К тому же его бросила жена, и он в одиночку воспитывает дочь Юлю, которая его ненавидит и винит в разрыве с матерью. Барнашов — мужчина с принципами, но ему придется ими поступиться, чтобы наладить контакт с дочерью. Для этого он регистрируется в соцсети под видом парня-подростка.

Качество: WEBRip
Формат: AVI

Видео: XviD, 720x400, ~ 1600 Кбит/с, 0.215 bit/pixel, 25 Кадр/с
Аудио: 48.0 kHz, AC3 Dolby Digital, 2/0 (L,R) ch, ~ 192 kbps
скриншот  скриншот  скриншот  скриншот  скриншот  

Общее
Полное имя : D:\Kontakt.2021.WEB-DLRip.25Kuzmich\Kontakt.e01.WEB-DLRip.25Kuzmich.avi
Формат : AVI
Формат/Информация : Audio Video Interleave
Размер файла : 682 Мбайт
Продолжительность : 54 м. 26 с.
Общий поток : 1 753 Кбит/сек
Программа кодирования : VirtualDubMod 1.5.10.3 | www.virtualdub-fr.org || (build 2550/release)
Библиотека кодирования : VirtualDubMod build 2550/release

Видео
Идентификатор : 0
Формат : MPEG-4 Visual
Профиль формата : Advanced Simple@L5
Настройки формата : BVOP1
Параметр BVOP формата : 1
Параметр QPel формата : Нет
Параметр GMC формата : Без точки перехода
Параметр матрицы формата : Default (MPEG)
Идентификатор кодека : XVID
Идентификатор кодека/Подсказка : XviD
Продолжительность : 54 м. 26 с.
Битрейт : 1 551 Кбит/сек
Ширина : 720 пикселей
Высота : 400 пикселей
Соотношение сторон : 16:9
Частота кадров : 25,000 кадров/сек
Цветовое пространство : YUV
Субдискретизация насыщенности : 4:2:0
Битовая глубина : 8 бит
Тип развёртки : Прогрессивная
Метод сжатия : С потерями
Бит/(Пиксели*Кадры) : 0.215
Размер потока : 604 Мбайт (88%)
Библиотека кодирования : XviD 73

Аудио
Идентификатор : 1
Формат : AC-3
Формат/Информация : Audio Coding 3
Коммерческое название : Dolby Digital
Идентификатор кодека : 2000
Продолжительность : 54 м. 26 с.
Вид битрейта : Постоянный
Битрейт : 192 Кбит/сек
Каналы : 2 канала
Channel layout : L R
Частота : 48,0 КГц
Частота кадров : 31,250 кадров/сек (1536 SPF)
Метод сжатия : С потерями
Размер потока : 74,8 Мбайт (11%)
Выравнивание : Разделение по промежуткам
Продолжительность промежутка : 40 мс. (1,00 видеокадр)
Время предзагрузки промежутка : 500 мс.
Service kind : Complete Main

Внимание! Раздача ведётся путём добавления новых серий; при каждом добавлении создаётся новый торрент.
Чтобы начать докачку новой серии, пользователям необходимо сделать следующее:
1. Остановить скачивание;
2. Удалить старый торрент у себя из клиента (старые серии удалять не надо);
3. Скачать новый торрент и запустить его у себя в клиенте вместо старого, при этом указать клиенту путь в старую папку куда и должно происходить скачивание новых серий. Ваш клиент при этом должен произвести хеширование (проверку) старой папки и будет докачивать только те серии, которых у вас ещё нет. Старые серии при этом не удаляются, а продолжают раздаваться! Eсли вы уже удалили старые серии, то предотвратить повторную закачку старых серий можно, отжав галочку в соответствующих местах при запуске нового торрента.

pb.wtf



Скачать Контакт через торрент https://i115.fastpic.org/big/2021/0909/cc/6f044d100d66ffcf123653476bd867cc.jpg Скачать, смотреть онлайн Контакт бесплантно в хорошем качестве Описание: Глеб Барнашов — крутой опер, но разжалован в инспекторы по делам несовершеннолетних. К тому же его бросила жена, и он в одиночку ... 10 10 10
Торрент: Зарегистрирован [2021-10-05 02:50] · скачан: 117 раз
Статус: √ проверено
Размер: 5.99 GB
Как cкачать? Как скачать Контакт через торрент | UTorrent

% Раздел Тема Автор DL S | L
TNT serials [ 5.58 GB ] Контакт / Сезон: 1 / Серии: 1-9 из 9 [2021 WEBRip-AVC ] bober100 Скачать
15 | 1
TNT serials [ 9.8 GB ] Контакт / Сезон: 1 / Серии: 1-9 из 9 [2021 WEBRip 720p ] bober100 Скачать
7 | 5
TNT serials [ 14.41 GB ] Контакт / Сезон: 1 / Серии: 1-9 из 9 [2021 WEBRip 1080p ] bober100 Скачать
17 | 0

28-11-2019 20:33  

Отключить всю рекламу на сайте

    Дорогой пользователь! Огромная просьба, поблагодарите релизера, оцените раздачу и оставьте свои комментарий, если Вы скачали Контакт через торрент бесплатно!
    Комментировать посты могут только пользователи прошедшие не сложную регистрацию
    Показать сообщения:    

    Контакт через торрент
    Скачать бесплатно Контакт
    Контакт скачать торрент
    Контакт смотреть онлайн
    Cкачать фильм Контакт бесплатно
    Контакт скачать торрент в хорошем качестве
    Контакт смотреть онлайн бесплатно в хорошем качестве


    Вы не можете начинать темы
    Вы не можете отвечать на сообщения
    Вы не можете редактировать свои сообщения
    Вы не можете удалять свои сообщения
    Вы не можете голосовать в опросах
    Вы не можете прикреплять файлы к сообщениям
    Вы можете скачивать файлы