>

5.6

iTunes

6.1

MVO

5.7

MVO

1

7.4

1 сезон

6.8

iTunes

7.2

1 сезон

13

6.7

1 сезон

8.3

RePack

30

Deluxe

pack

9.9

Лицензия

ВАЖНО

ИГРА 18+

pack

7.3

RePack

MK11

7.7

RePack

jed

7.8

RePack

fifa19

8.5

RePack

RDR2

RePack

NEED FOR SPEED™ PAYBACK

4 сезон

9 сезон

Бесстыжие 9 сезон

Все сериалы

все сериалы на PB.wtf

RePack

FAR CRY 5

Anonymous, доброй ночи, мы катастрофически не успеваем собрать деньги на оплату серверов, помогите нам пожалуйста 5,10,15р., для нас важна любая помощь . В качестве благодарности мы отключим Вам всю рекламу на сайте (укажите свой ник в строку Ваше имя)!

×
  
Magnet ссылка

Ассасин: Битва миров / A Writer's Odyssey: Assassin in red / Ci sha xiao shuo jia (Лу Ян) [2021, Фэнтези, боевик, HDRip-AVC] DUB [iTunes] от MediaBit pb.wtf

Ассасин: Битва миров через торрент pb.wtf

Раздают: 2 [ 0 KB/s ]
Размер: 2.69 GB | Добавлен: 15 д. назад | Торрент скачан:95 раз
Смотреть онлайн Ассасин: Битва миров | Скачать    Ребята, помогите собрать деньги на оплату серверов!!!

09-09-2021 14:12 Ассасин: Битва миров Скачать торрент  


Ассасин: Битва миров / A Writer's Odyssey: Assassin in red / Ci sha xiao shuo jia
Информация о фильме:
Название: Ассасин: Битва миров
Оригинальное название: A Writer's Odyssey: Assassin in red / Ci sha xiao shuo jia
Год выхода: 2021
Жанр: Фэнтези, боевик
Режиссер: Лу Ян

В ролях: Цзяинь Лэй, Ми Ян, Дун Цзыцзянь, Хэвэй Юй, Цзинфэй Го, Ван Шэнди, Лия Тун, Дун Цзэ, Ян И, Лю Тяньцзо, Ли Бинхуэй, Эрик Сяо,Шуан Сюэтао, Гао Жуйфэйэр, Эрик Сюй, Гао Жуйфэйэр, Чжан Ю

Описание: В имперской столице фэнтезийного мира правит жестокий Бог, направо и налево убивая невинных жителей. Только один герой — молодой Лу Кунвэнь — решает противостоять тирану, но теперь за парнем охотится убийца в красном. Сюжет новой книги писателя Лу Кунвэня внезапно начинает прорываться в реальность и угрожать существованию этого мира. На своем пути воин столкнется с суровыми испытаниями, станет свидетелем невероятных баталий и будет противостоять загадочным ассасинам в красном. Каждый его шаг должен быть решителен, но осторожен, ведь его действия найдут отклик за пределами реальности и изменят судьбы людей параллельного мира навсегда.



Страна: Китай
Студия: Free Whale Pictures, Huace Pictures
Продолжительность: 02:09:57
Перевод: Дублированный - iTunes



Информация о файле:
Кодек: AVC
Формат: MKV
Качество: HDRip-AVC
Видео: MPEG-4 AVC, 1024x556, 24.000 fps, 2583 kbps
Аудио RU: AC3, 6 ch, 48 kHz, 384 kbps
Субтитры: Русские (Forced), английские (Full)

x264 info: frame I:1966 Avg QP:12.66 size:109686
x264 info: frame P:44205 Avg QP:17.25 size: 28971
x264 info: frame B:140789 Avg QP:20.31 size: 7237
General
Unique ID : 143545726331146803915926181670398533911 (0x6BFDE6B9D3BF4985A7A59BEC59E12117)
Complete name : D:\uTorrent\Рипы wolf1245\A.Writers.Odyssey.Assassin.in.red.2021.DUB.HDRip-AVC.[=wolf1245.MediaBit=].mkv
Format : Matroska
Format version : Version 4
File size : 2.69 GiB
Duration : 2 h 9 min
Overall bit rate : 2 969 kb/s
Movie name : A.Writers.Odyssey.Assassin.in.red.2021.DUB.HDRip-AVC.[=wolf1245.MediaBit=]
Encoded date : UTC 2021-09-09 13:59:43
Writing application : mkvmerge v61.0.0 ('So') 64-bit
Writing library : libebml v1.4.2 + libmatroska v1.6.4

Video
ID : 1
Format : AVC
Format/Info : Advanced Video Codec
Format profile : High@L4.1
Format settings : CABAC / 14 Ref Frames
Format settings, CABAC : Yes
Format settings, Reference frames : 14 frames
Codec ID : V_MPEG4/ISO/AVC
Duration : 2 h 9 min
Bit rate : 2 583 kb/s
Width : 1 024 pixels
Height : 556 pixels
Display aspect ratio : 1.85:1
Frame rate mode : Constant
Frame rate : 24.000 FPS
Color space : YUV
Chroma subsampling : 4:2:0
Bit depth : 8 bits
Scan type : Progressive
Bits/(Pixel*Frame) : 0.189
Stream size : 2.34 GiB (87%)
Title : -=[wolf1245.MediaBit]=-
Writing library : x264 core 161 r3020 d198931
Encoding settings : cabac=1 / ref=14 / deblock=1:-3:-3 / analyse=0x3:0x133 / me=umh / subme=11 / psy=1 / psy_rd=0.98:0.05 / mixed_ref=1 / me_range=48 / chroma_me=1 / trellis=2 / 8x8dct=1 / cqm=0 / deadzone=21,11 / fast_pskip=1 / chroma_qp_offset=-3 / threads=10 / lookahead_threads=2 / sliced_threads=0 / nr=0 / decimate=1 / interlaced=0 / bluray_compat=0 / constrained_intra=0 / bframes=12 / b_pyramid=2 / b_adapt=2 / b_bias=0 / direct=3 / weightb=1 / open_gop=0 / weightp=2 / keyint=240 / keyint_min=24 / scenecut=40 / intra_refresh=0 / rc_lookahead=60 / rc=2pass / mbtree=1 / bitrate=2583 / ratetol=1.0 / qcomp=0.60 / qpmin=0 / qpmax=69 / qpstep=4 / cplxblur=20.0 / qblur=0.5 / vbv_maxrate=50000 / vbv_bufsize=62500 / nal_hrd=none / filler=0 / ip_ratio=1.40 / aq=3:0.80
Language : Chinese
Default : Yes
Forced : No
Color range : Limited
Color primaries : BT.709
Transfer characteristics : BT.709
Matrix coefficients : BT.709

Audio
ID : 2
Format : AC-3
Format/Info : Audio Coding 3
Commercial name : Dolby Digital
Codec ID : A_AC3
Duration : 2 h 9 min
Bit rate mode : Constant
Bit rate : 384 kb/s
Channel(s) : 6 channels
Channel layout : L R C LFE Ls Rs
Sampling rate : 48.0 kHz
Frame rate : 31.250 FPS (1536 SPF)
Compression mode : Lossy
Stream size : 357 MiB (13%)
Title : iTunes | DUB
Language : Russian
Service kind : Complete Main
Default : Yes
Forced : No

Text #1
ID : 3
Format : UTF-8
Codec ID : S_TEXT/UTF8
Codec ID/Info : UTF-8 Plain Text
Duration : 1 h 48 min
Bit rate : 0 b/s
Count of elements : 11
Stream size : 663 Bytes (0%)
Title : Forced
Language : Russian
Default : No
Forced : No

Text #2
ID : 4
Format : UTF-8
Codec ID : S_TEXT/UTF8
Codec ID/Info : UTF-8 Plain Text
Duration : 2 h 4 min
Bit rate : 32 b/s
Count of elements : 1502
Stream size : 29.6 KiB (0%)
Title : Full
Language : English
Default : No
Forced : No

Menu
00:00:00.000 : :Chapter 01
00:08:13.833 : :Chapter 02
00:19:26.083 : :Chapter 03
00:30:51.208 : :Chapter 04
00:46:18.333 : :Chapter 05
00:55:02.000 : :Chapter 06
01:08:28.250 : :Chapter 07
01:14:57.833 : :Chapter 08
01:27:33.625 : :Chapter 09
01:36:35.333 : :Chapter 10
01:50:12.541 : :Chapter 11
02:00:47.458 : :Chapter 12
Релиз от: &

Автор релиза:
pb.wtf



Скачать Ассасин: Битва миров через торрент https://i114.fastpic.ru/big/2021/0423/31/10ed1d123c52768f2ed5cbbb2e02d031.jpg Скачать, смотреть онлайн Ассасин: Битва миров бесплантно в хорошем качестве Описание: В имперской столице фэнтезийного мира правит жестокий Бог, направо и налево убивая невинных жителей. Только один герой — ... 10 10 7
Торрент: Зарегистрирован [2021-09-09 14:12] · скачан: 95 раз
Статус: √ проверено
Размер: 2.69 GB
Как cкачать? Как скачать Ассасин: Битва миров через торрент | UTorrent

28-11-2019 20:33  

Отключить всю рекламу на сайте

    Дорогой пользователь! Огромная просьба, поблагодарите релизера, оцените раздачу и оставьте свои комментарий, если Вы скачали Ассасин: Битва миров через торрент бесплатно!
    Комментировать посты могут только пользователи прошедшие не сложную регистрацию
    Показать сообщения:    

    Ассасин: Битва миров через торрент
    Скачать бесплатно Ассасин: Битва миров
    Ассасин: Битва миров скачать торрент
    Ассасин: Битва миров смотреть онлайн
    Cкачать фильм Ассасин: Битва миров бесплатно
    Ассасин: Битва миров скачать торрент в хорошем качестве
    Ассасин: Битва миров смотреть онлайн бесплатно в хорошем качестве


    Вы не можете начинать темы
    Вы не можете отвечать на сообщения
    Вы не можете редактировать свои сообщения
    Вы не можете удалять свои сообщения
    Вы не можете голосовать в опросах
    Вы не можете прикреплять файлы к сообщениям
    Вы можете скачивать файлы