Присоединяйтесь к нам в Telegram!, здесь всегда актуальный адрес сайта, оперативная поддержка и многое другое!!

>

5.9

iTunes

7.4

iTunes

9.4

1 сезон

1

7.4

2 сезон

7.2

iTunes

7.3

1 сезон

13

6.1

iTunes

8.3

GOG

30

ULTIMATE

pack

9.9

Лицензия

ВАЖНО

ИГРА 18+

pack

7.3

RePack

MK11

7.7

RePack

jed

7.8

RePack

fifa19

8.5

RePack

RDR2

RePack

NEED FOR SPEED™ PAYBACK

5 сезон

9 сезон

Бесстыжие 9 сезон

Все сериалы

все сериалы на PB.wtf

RePack

FAR CRY 5

Anonymous, доброе утро, мы катастрофически не успеваем собрать деньги на оплату серверов, помогите нам пожалуйста 5,10,15р., для нас важна любая помощь . В качестве благодарности мы отключим Вам всю рекламу на сайте (укажите свой ник в строку Ваше имя)!

×
  
Magnet ссылка

Кейт / Kate (Седрик Николя-Троян) [2021, Боевик, триллер, криминал, WEB-DLRip-AVC] DUB [SDI Media / Netflix] pb.wtf

Кейт через торрент pb.wtf

Раздают: 1 [ 0 KB/s ]
Размер: 1.46 GB | Добавлен: 2 мес. 21 д. назад | Торрент скачан:147 раз
Смотреть онлайн Кейт | Скачать    Ребята, помогите собрать деньги на оплату серверов!!!

10-09-2021 09:54 Кейт Скачать торрент  

Кейт | Kate
Год выпуска: 2021
Страна: Ирландия, Канада, США, Великобритания
Выпущено: 87North, Screen Arcade
Жанр: Боевик, триллер, криминал
Продолжительность: 01:45:22
Перевод: Дублированный | SDI Media по заказу Netflix
Субтитры: Русские, украинские, английские

Режиссер: Седрик Николя-Троян

rating

В ролях: Мэри Элизабет Уинстэд, Вуди Харрельсон, Микил Хаусмен, Таданобу Асано, Элисия Ротару, Амелия Крауч, Мияви, Дзюн Кунимура, Жан-Луп Пилблад, Оуэн О’Брайен

Описание: Безжалостную преступницу отравили, и у неё осталось меньше 24 часов, чтобы отомстить. В процессе она неожиданно сближается с дочерью одной из своих жертв.

Качество: WEB-DLRip-AVC
Формат: MKV

Видео: 1024x428 at 24.000 fps, x264@L4.1, ~1507 kbps
Аудио: 48 kHz, AC3, 5.1, 448 Kbps | Netflix | RUS |
скриншот  скриншот  скриншот  скриншот  скриншот  

x264 [info]: frame I:1143 Avg QP:12.30 size: 58231
x264 [info]: frame P:33178 Avg QP:16.14 size: 18552
x264 [info]: frame B:118783 Avg QP:18.45 size: 4376
x264 [info]: consecutive B-frames: 2.2% 2.8% 7.9% 18.9% 13.1% 47.0% 3.2% 1.0% 0.7% 0.6% 1.2% 0.7% 0.1%

General
Unique ID : 278473166579667855224985069654629588178 (0xD17FFB2448E6F898007318516E169CD2)
Complete name : K:Кейт.(2021).WEB-DLRip-AVC.[-=DoMiNo=-].mkv
Format : Matroska
Format version : Version 4
File size : 1.46 GiB
Duration : 1 h 47 min
Overall bit rate : 1 937 kb/s
Movie name : Кейт.(2021).WEB-DLRip-AVC.[-=DoMiNo=-]
Encoded date : UTC 2021-09-10 09:29:47
Writing application : mkvmerge v61.0.0 ('So') 64-bit
Writing library : libebml v1.4.2 + libmatroska v1.6.4
Cover : Yes
Attachments : Cover.png / Cover 2.jpg

Video
ID : 1
Format : AVC
Format/Info : Advanced Video Codec
Format profile : High@L4.1
Format settings : CABAC / 12 Ref Frames
Format settings, CABAC : Yes
Format settings, Reference : 12 frames
Codec ID : V_MPEG4/ISO/AVC
Duration : 1 h 46 min
Bit rate : 1 507 kb/s
Width : 1 024 pixels
Height : 428 pixels
Display aspect ratio : 2.40:1
Frame rate mode : Constant
Frame rate : 24.000 FPS
Color space : YUV
Chroma subsampling : 4:2:0
Bit depth : 8 bits
Scan type : Progressive
Bits/(Pixel*Frame) : 0.143
Stream size : 1.12 GiB (77%)
Title : -=DoMiNo=-
Writing library : x264 core 164 r3065+55M 280faca t_mod_New [(8 & 10)-bit@all X86_64]
Encoding settings : cabac=1 / ref=12 / deblock=1:-3:-2 / analyse=0x3:0x133 / me=umh / subme=10 / psy=1 / fade_compensate=0.00 / psy_rd=1.00:0.20 / mixed_ref=1 / me_range=32 / chroma_me=1 / trellis=2 / 8x8dct=1 / cqm=0 / deadzone=21,11 / fast_pskip=0 / chroma_qp_offset=-3 / threads=24 / lookahead_threads=3 / sliced_threads=0 / nr=0 / decimate=0 / interlaced=0 / bluray_compat=0 / constrained_intra=0 / fgo=0 / bframes=12 / b_pyramid=2 / b_adapt=2 / b_bias=0 / direct=3 / weightb=1 / open_gop=0 / weightp=2 / keyint=240 / keyint_min=24 / scenecut=40 / intra_refresh=0 / rc_lookahead=60 / rc=2pass / mbtree=0 / bitrate=1507 / ratetol=1.0 / qcomp=0.60 / qpmin=0:0:0 / qpmax=69:69:69 / qpstep=4 / cplxblur=20.0 / qblur=0.5 / vbv_maxrate=50000 / vbv_bufsize=62500 / nal_hrd=none / filler=0 / ip_ratio=1.40 / pb_ratio=1.30 / aq=2:1.00 / aq-sensitivity=10.00 / aq-factor=1.00:1.00:1.00 / aq2=0 / aq3=0
Language : English
Default : Yes
Forced : No

Audio
ID : 2
Format : AC-3
Format/Info : Audio Coding 3
Commercial name : Dolby Digital
Codec ID : A_AC3
Duration : 1 h 47 min
Bit rate mode : Constant
Bit rate : 448 kb/s
Channel(s) : 6 channels
Channel layout : L R C LFE Ls Rs
Sampling rate : 48.0 kHz
Frame rate : 31.250 FPS (1536 SPF)
Compression mode : Lossy
Stream size : 346 MiB (23%)
Title : DUB
Language : Russian
Service kind : Complete Main
Default : Yes
Forced : No

Text #1
ID : 3
Format : UTF-8
Codec ID : S_TEXT/UTF8
Codec ID/Info : UTF-8 Plain Text
Duration : 1 h 45 min
Bit rate : 9 b/s
Count of elements : 183
Stream size : 7.35 KiB (0%)
Title : Forced
Language : Russian
Default : Yes
Forced : No

Text #2
ID : 4
Format : UTF-8
Codec ID : S_TEXT/UTF8
Codec ID/Info : UTF-8 Plain Text
Duration : 1 h 45 min
Bit rate : 42 b/s
Count of elements : 808
Stream size : 33.0 KiB (0%)
Title : Full
Language : Russian
Default : No
Forced : No

Text #3
ID : 5
Format : UTF-8
Codec ID : S_TEXT/UTF8
Codec ID/Info : UTF-8 Plain Text
Duration : 1 h 45 min
Bit rate : 9 b/s
Count of elements : 189
Stream size : 7.23 KiB (0%)
Title : Forced
Language : Ukrainian
Default : No
Forced : No

Text #4
ID : 6
Format : UTF-8
Codec ID : S_TEXT/UTF8
Codec ID/Info : UTF-8 Plain Text
Duration : 1 h 45 min
Bit rate : 40 b/s
Count of elements : 805
Stream size : 31.5 KiB (0%)
Title : Full
Language : Ukrainian
Default : No
Forced : No

Text #5
ID : 7
Format : UTF-8
Codec ID : S_TEXT/UTF8
Codec ID/Info : UTF-8 Plain Text
Duration : 1 h 34 min
Bit rate : 41 b/s
Count of elements : 1097
Stream size : 29.1 KiB (0%)
Language : English
Default : No
Forced : No

pb.wtf



Скачать Кейт через торрент https://a.radikal.ru/a42/2109/fb/adbadb319933.png Скачать, смотреть онлайн Кейт бесплантно в хорошем качестве Описание: Безжалостную преступницу отравили, и у неё осталось меньше 24 часов, чтобы отомстить. В процессе она неожиданно сближается с ... 10 10 8
Торрент: Зарегистрирован [2021-09-10 09:54] · скачан: 147 раз
Статус: √ проверено
Размер: 1.46 GB
Как cкачать? Как скачать Кейт через торрент | UTorrent

% Раздел Тема Автор DL S | L
Фильмы 2021 [DVDrip, WEB-DLRip, HDrip] (DUB, MVO) [ 2.86 GB ] Кейт / Kate [2021 WEB-DLRip-AVC] DUB [Netflix] от MediaBit Lithuania Скачать
3 | 0
Фильмы 2021 [DVDrip, WEB-DLRip, HDrip] (DUB, MVO) [ 1.46 GB ] Кейт / Kate [2021 WEB-DLRip] - [ / Netflix] Twi7ter Скачать
98 | 14
Фильмы (WEB-DL 720p, 1080p) [ 4.78 GB ] Кейт / Kate [2021 WEB-DL-HEVC 1080p] DUB [SDI Media / Netflix] bober100 Скачать
9 | 0
Фильмы 2021 [DVDrip, WEB-DLRip, HDrip] (DUB, MVO) [ 1.45 GB ] Кейт / Kate [2021 WEB-DLRip] DUB [SDI Media / Netflix] bober100 Скачать
4 | 0
Фильмы (WEB-DL 720p, 1080p) [ 2.38 GB ] Кейт / Kate [2021 WEB-DL 720p] DUB [SDI Media / Netflix] bober100 Скачать
4 | 0
Фильмы (WEB-DL 720p, 1080p) [ 3.41 GB ] Кейт / Kate [2021 WEB-DL 1080p] DUB [SDI Media / Netflix] bober100 Скачать
2 | 0
Фильмы 2021 [DVDrip, WEB-DLRip, HDrip] (DUB, MVO) [ 1.46 GB ] Скейтбордистка / Skater Girl [2021 WEB-DLRip] - [Пифагор / Netflix] Twi7ter Скачать
7 | 2

28-11-2019 20:33  

Отключить всю рекламу на сайте

    Дорогой пользователь! Огромная просьба, поблагодарите релизера, оцените раздачу и оставьте свои комментарий, если Вы скачали Кейт через торрент бесплатно!
    Комментировать посты могут только пользователи прошедшие не сложную регистрацию
    Показать сообщения:    

    Кейт через торрент
    Скачать бесплатно Кейт
    Кейт скачать торрент
    Кейт смотреть онлайн
    Cкачать фильм Кейт бесплатно
    Кейт скачать торрент в хорошем качестве
    Кейт смотреть онлайн бесплатно в хорошем качестве


    Вы не можете начинать темы
    Вы не можете отвечать на сообщения
    Вы не можете редактировать свои сообщения
    Вы не можете удалять свои сообщения
    Вы не можете голосовать в опросах
    Вы не можете прикреплять файлы к сообщениям
    Вы можете скачивать файлы