Присоединяйтесь к нам в Telegram!, здесь всегда актуальный адрес сайта, оперативная поддержка и многое другое!!

>

5.9

iTunes

7.4

iTunes

9.4

1 сезон

1

7.4

2 сезон

7.2

iTunes

7.3

1 сезон

13

6.1

iTunes

8.3

Пиратка

30

ULTIMATE

pack

9.9

Лицензия

ВАЖНО

ИГРА 18+

pack

7.3

RePack

MK11

7.7

RePack

jed

7.8

RePack

fifa19

8.5

RePack

RDR2

RePack

NEED FOR SPEED™ PAYBACK

5 сезон

9 сезон

Бесстыжие 9 сезон

Все сериалы

все сериалы на PB.wtf

RePack

FAR CRY 5

Anonymous, доброе утро, мы катастрофически не успеваем собрать деньги на оплату серверов, помогите нам пожалуйста 5,10,15р., для нас важна любая помощь . В качестве благодарности мы отключим Вам всю рекламу на сайте (укажите свой ник в строку Ваше имя)!

×
  
Magnet ссылка

Легенда о Зелёном Рыцаре / The Green Knight (Дэвид Лоури) [2021, Фэнтези, приключения, WEB-DLRip-AVC] DUB [iTunes] pb.wtf

Легенда о Зелёном Рыцаре через торрент pb.wtf

Раздают: 4 [ 0 KB/s ]
Размер: 1.62 GB | Добавлен: 2 мес. 25 д. назад | Торрент скачан:206 раз
Смотреть онлайн Легенда о Зелёном Рыцаре | Скачать    Ребята, помогите собрать деньги на оплату серверов!!!

10-09-2021 11:35 Легенда о Зелёном Рыцаре Скачать торрент  

Легенда о Зелёном Рыцаре | The Green Knight
Год выпуска: 2021
Страна: Ирландия, Канада, США, Великобритания
Выпущено: A24, Bron Studios, Creative Wealth Media Finance, Ley Line Entertainment, Sailor Bear, Wild Atlantic Pictures
Жанр: Фэнтези, приключения
Продолжительность: 02:09:45
Перевод: Дублированный | iTunes
Субтитры: Русские (Forced, full), английские

Режиссер: Дэвид Лоури

rating

В ролях: Дев Патель, Алисия Викандер, Джоэл Эдгертон, Шон Харрис, Сарита Чоудри, Барри Кеоган, Ралф Айнесон, Кейт Дики, Эрин Келлиман, Аарон Эдо, Юссеф Куинн

Описание: Король празднует Рождество в замке в окружении двора и верных рыцарей, куда вдруг заявляется загадочный Зелёный Рыцарь и предлагает принять его вызов. Любой из присутствующих может нанести ему удар, но через год и один день он должен будет встретится с Зелёным Рыцарем в зелёной часовне в девяти днях пути на север и принять удар в ответ. Молодой сэр Гавейн, племянник и единственный наследник короля, вызывается на поединок и отрубает странному гостю голову. Но тот, приставив голову на место, напоминает об уговоре и удаляется. Год спустя верный данному слову сэр Гавейн отправляется навстречу судьбе в полное опасностей путешествие.

Качество: WEB-DLRip-AVC
Формат: MKV

Видео: MPEG-4 AVC, 1024x554 at 23.976 fps, x264@L4.1, ~1403 kbps
Аудио: 48 kHz, AC3, 5.1, 384 Kbps | iTunes | RUS |
скриншот  скриншот  скриншот  скриншот  скриншот  

x264 [info]: frame I:1313 Avg QP:13.90 size: 59178
x264 [info]: frame P:36502 Avg QP:15.98 size: 18571
x264 [info]: frame B:148842 Avg QP:17.81 size: 4094

General
Unique ID : 259390732639453344329644286776903084975 (0xC324D6827E91A57E9688E6EE3A4E2BAF)
Complete name : I:Легенда о Зелёном Рыцаре.(2021).AMZN.WEB-DLRip-AVC.[-=DoMiNo=-].mkv
Format : Matroska
Format version : Version 4
File size : 1.62 GiB
Duration : 2 h 9 min
Overall bit rate : 1 788 kb/s
Movie name : Легенда о Зелёном Рыцаре.(2021).AMZN.WEB-DLRip-AVC.[-=DoMiNo=-]
Encoded date : UTC 2021-09-10 09:15:23
Writing application : mkvmerge v61.0.0 ('So') 64-bit
Writing library : libebml v1.4.2 + libmatroska v1.6.4
Cover : Yes
Attachments : Cover.jpg / Cover 2.jpg

Video
ID : 1
Format : AVC
Format/Info : Advanced Video Codec
Format profile : High@L4.1
Format settings : CABAC / 12 Ref Frames
Format settings, CABAC : Yes
Format settings, Reference : 12 frames
Codec ID : V_MPEG4/ISO/AVC
Duration : 2 h 9 min
Bit rate : 1 403 kb/s
Width : 1 024 pixels
Height : 554 pixels
Display aspect ratio : 1.85:1
Frame rate mode : Constant
Frame rate : 23.976 (24000/1001) FPS
Color space : YUV
Chroma subsampling : 4:2:0
Bit depth : 8 bits
Scan type : Progressive
Bits/(Pixel*Frame) : 0.103
Stream size : 1.27 GiB (78%)
Title : -=DoMiNo=-
Writing library : x264 core 164 r3065+55M 280faca t_mod_New [(8 & 10)-bit@all X86_64]
Encoding settings : cabac=1 / ref=12 / deblock=1:-3:-2 / analyse=0x3:0x133 / me=umh / subme=10 / psy=1 / fade_compensate=0.00 / psy_rd=1.00:0.20 / mixed_ref=1 / me_range=32 / chroma_me=1 / trellis=2 / 8x8dct=1 / cqm=0 / deadzone=21,11 / fast_pskip=0 / chroma_qp_offset=-3 / threads=24 / lookahead_threads=4 / sliced_threads=0 / nr=0 / decimate=1 / interlaced=0 / bluray_compat=0 / constrained_intra=0 / fgo=0 / bframes=12 / b_pyramid=2 / b_adapt=2 / b_bias=0 / direct=1 / weightb=1 / open_gop=0 / weightp=2 / keyint=240 / keyint_min=23 / scenecut=40 / intra_refresh=0 / rc_lookahead=60 / rc=crf / mbtree=0 / crf=20.0000 / qcomp=0.60 / qpmin=0:0:0 / qpmax=69:69:69 / qpstep=4 / vbv_maxrate=50000 / vbv_bufsize=62500 / crf_max=0.0 / nal_hrd=none / filler=0 / ip_ratio=1.30 / pb_ratio=1.20 / aq=3:1.00 / aq-sensitivity=10.00 / aq-factor=1.00:1.00:1.00 / aq2=0 / aq3=0
Language : English
Default : Yes
Forced : No
Color range : Limited
Color primaries : BT.709
Transfer characteristics : BT.709
Matrix coefficients : BT.709

Audio
ID : 2
Format : AC-3
Format/Info : Audio Coding 3
Commercial name : Dolby Digital
Codec ID : A_AC3
Duration : 2 h 9 min
Bit rate mode : Constant
Bit rate : 384 kb/s
Channel(s) : 6 channels
Channel layout : L R C LFE Ls Rs
Sampling rate : 48.0 kHz
Frame rate : 31.250 FPS (1536 SPF)
Compression mode : Lossy
Stream size : 356 MiB (21%)
Title : DUB_[iTunes]
Language : Russian
Service kind : Complete Main
Default : Yes
Forced : Yes

Text #1
ID : 3
Format : UTF-8
Codec ID : S_TEXT/UTF8
Codec ID/Info : UTF-8 Plain Text
Duration : 1 h 59 min
Bit rate : 0 b/s
Count of elements : 14
Stream size : 467 Bytes (0%)
Title : Forced
Language : Russian
Default : Yes
Forced : No

Text #2
ID : 4
Format : UTF-8
Codec ID : S_TEXT/UTF8
Codec ID/Info : UTF-8 Plain Text
Duration : 2 h 4 min
Bit rate : 32 b/s
Count of elements : 718
Stream size : 29.6 KiB (0%)
Title : Full
Language : Russian
Default : No
Forced : No

Text #3
ID : 5
Format : UTF-8
Codec ID : S_TEXT/UTF8
Codec ID/Info : UTF-8 Plain Text
Duration : 2 h 8 min
Bit rate : 31 b/s
Count of elements : 1238
Stream size : 29.6 KiB (0%)
Title : SDH
Language : English
Default : No
Forced : No

pb.wtf



Скачать Легенда о Зелёном Рыцаре через торрент https://c.radikal.ru/c02/2109/be/3023a073603a.jpg Скачать, смотреть онлайн Легенда о Зелёном Рыцаре бесплантно в хорошем качестве Описание: Король празднует Рождество в замке в окружении двора и верных рыцарей, куда вдруг заявляется загадочный Зелёный Рыцарь и ... 10 10 5
Торрент: Зарегистрирован [2021-09-10 11:35] · скачан: 206 раз
Статус: √ проверено
Размер: 1.62 GB
Как cкачать? Как скачать Легенда о Зелёном Рыцаре через торрент | UTorrent

% Раздел Тема Автор DL S | L
Фильмы [HD 720p, 1080p] (Звук Cam, VO, DVO) [ 11.52 GB ] Легенда о Зелёном Рыцаре / The Green Knight [2021 BDRip 1080p] DVO [Кубик в кубе] bober100 Скачать
4 | 0
Фильмы 2021 [DVDrip, WEB-DLRip, HDrip] (DUB, MVO) [ 2.18 GB ] Легенда о Зелёном Рыцаре / The Green Knight [2021 BDRip] - [СинеЛаб СаундМикс] Twi7ter Скачать
16 | 0
Фильмы 2021 [DVDrip, WEB-DLRip, HDrip] (DUB, MVO) [ 1.46 GB ] Легенда о Зелёном Рыцаре / The Green Knight [2021 BDRip] - [СинеЛаб СаундМикс] Twi7ter Скачать
24 | 2
Фильмы 2021 [DVDrip, WEB-DLRip, HDrip] (DUB, MVO) [ 2.49 GB ] Легенда о Зелёном Рыцаре / The Green Knight [2021 HDLRip-AVC] DUB [ СинеЛаб СаундМикс] от ExKinoRay Lithuania Скачать
4 | 0
Ultra HD (UHD: 2K, 4K, 8K) — видео сверхвысокой чёткости [ 70.9 GB ] Легенда о Зелёном Рыцаре / The Green Knight [2021 UHD BDRemux 2160p ] DUB [СинеЛаб СаундМикс] bober100 Скачать
2 | 0
Ultra HD (UHD: 2K, 4K, 8K) — видео сверхвысокой чёткости [ 59.67 GB ] Легенда о Зелёном Рыцаре / The Green Knight [2021 UHD BDRemux 2160p ] DUB [СинеЛаб СаундМикс] bober100 Скачать
1 | 0
Фильмы [HD 720p, 1080p] (Хороший звук DUB, MVO) [ 11.57 GB ] Легенда о Зелёном Рыцаре / The Green Knight [2021 BDRip 1080p] DUB [СинеЛаб СаундМикс] bober100 Скачать
5 | 0

28-11-2019 20:33  

Отключить всю рекламу на сайте

    Дорогой пользователь! Огромная просьба, поблагодарите релизера, оцените раздачу и оставьте свои комментарий, если Вы скачали Легенда о Зелёном Рыцаре через торрент бесплатно!
    Комментировать посты могут только пользователи прошедшие не сложную регистрацию
    Показать сообщения:    

    Легенда о Зелёном Рыцаре через торрент
    Скачать бесплатно Легенда о Зелёном Рыцаре
    Легенда о Зелёном Рыцаре скачать торрент
    Легенда о Зелёном Рыцаре смотреть онлайн
    Cкачать фильм Легенда о Зелёном Рыцаре бесплатно
    Легенда о Зелёном Рыцаре скачать торрент в хорошем качестве
    Легенда о Зелёном Рыцаре смотреть онлайн бесплатно в хорошем качестве


    Вы не можете начинать темы
    Вы не можете отвечать на сообщения
    Вы не можете редактировать свои сообщения
    Вы не можете удалять свои сообщения
    Вы не можете голосовать в опросах
    Вы не можете прикреплять файлы к сообщениям
    Вы можете скачивать файлы