Присоединяйтесь к нам в Telegram!, здесь всегда актуальный адрес сайта, оперативная поддержка и многое другое!!

>

5.9

iTunes

7.4

iTunes

9.4

1 сезон

1

7.4

2 сезон

7.2

iTunes

7.3

1 сезон

13

6.1

iTunes

8.3

GOG

30

ULTIMATE

pack

9.9

Лицензия

ВАЖНО

ИГРА 18+

pack

7.3

RePack

MK11

7.7

RePack

jed

7.8

RePack

fifa19

8.5

RePack

RDR2

RePack

NEED FOR SPEED™ PAYBACK

5 сезон

9 сезон

Бесстыжие 9 сезон

Все сериалы

все сериалы на PB.wtf

RePack

FAR CRY 5

Anonymous, добрый вечер, мы катастрофически не успеваем собрать деньги на оплату серверов, помогите нам пожалуйста 5,10,15р., для нас важна любая помощь . В качестве благодарности мы отключим Вам всю рекламу на сайте (укажите свой ник в строку Ваше имя)!

×
  
Magnet ссылка

Любовь, свидания, Нью-Йорк / Dating & New York (Джона Фейнголд) [2021, комедия, WEB-DLRip-AVC] [Dub] [iTunes] pb.wtf

Любовь, свидания, Нью-Йорк через торрент pb.wtf

Раздают: 2 [ 0 KB/s ]
Размер: 1.33 GB | Добавлен: 2 мес. 20 д. назад | Торрент скачан:65 раз
Смотреть онлайн Любовь, свидания, Нью-Йорк | Скачать    Ребята, помогите собрать деньги на оплату серверов!!!

10-09-2021 17:02 Любовь, свидания, Нью-Йорк Скачать торрент  


Любовь, свидания, Нью-Йорк / Dating & New York

Год выпуска: 2021
Страна: США
Жанр: комедия
Продолжительность: 01:31:20
Перевод: Профессиональный (дублированный) iTunes
Субтитры: нет
Режиссер: Джона Фейнголд / Jonah Feingold
В ролях: Франческа Реале, Джабук Янг-Уайт, Катрин Коэн, Брайан Мюллер, Джерри Феррара, Артуро Кастро, Тейлор Мари Хилл, Джона Фейнголд, Алекс Моффат, Сондра Джеймс, Ева Виктор, Сохина Сидху, Халли Голов, Йедойе Трэвис, Брендан Моррис
Описание: Однажды в Нью-Йорке пересекаются судьбы двух молодых людей — Майло и Венди. Они пользовались не одним приложением для знакомств, ходили на кучу свиданий и смотрели все романтические комедии, поэтому думают, что знают об отношениях всё. Но, договариваясь на секс по дружбе и обещая, что не будут испытывать друг к другу чувств, они бросают вызов тому, что не поддаётся рассудку — любви.
rating

Качество видео: WEB-DLRip-AVC
Формат видео: MKV
Видео: MPEG-4 AVC, 956x518 (1.85:1), 23.976 fps, ~1657 kbps avg, 0.140 bit/pixel
Аудио: 48 kHz, AC3 Dolby Digital, 3/2 (L,C,R,l,r) + LFE ch, ~384 kbps avg
Complete name               : E:\Любовь, свидания, Нью-Йорк (2021) WEB-DLRip-AVC_ivanes.mkv
Format : Matroska
Format version : Version 2
File size : 1.33 GiB
Duration : 1 h 31 min
Overall bit rate : 2 083 kb/s
Movie name : Любовь, свидания, Нью-Йорк (2021) WEB-DLRip-AVC_ivanes
Encoded date : UTC 2021-09-10 15:35:40
Writing application : mkvmerge v4.4.0 ('Die Wiederkehr') сборка от Jan 3 2011 21:40:45
Writing library : libebml v1.0.0 + libmatroska v1.0.0
Cover : Yes
Attachments : cover.jpg

Video
ID : 1
Format : AVC
Format/Info : Advanced Video Codec
Format profile : High@L4.1
Format settings : CABAC / 14 Ref Frames
Format settings, CABAC : Yes
Format settings, Reference : 14 frames
Codec ID : V_MPEG4/ISO/AVC
Duration : 1 h 31 min
Bit rate : 1 657 kb/s
Width : 956 pixels
Height : 518 pixels
Display aspect ratio : 1.85:1
Frame rate mode : Constant
Frame rate : 23.976 (24000/1001) FPS
Color space : YUV
Chroma subsampling : 4:2:0
Bit depth : 8 bits
Scan type : Progressive
Bits/(Pixel*Frame) : 0.140
Stream size : 1.06 GiB (80%)
Title : Rip by ivanes
Writing library : x264 core 164 r3065+55M 280faca t_mod_New [(8 & 10)-bit@all X86_64]
Encoding settings : cabac=1 / ref=14 / deblock=1:-3:-2 / analyse=0x3:0x113 / me=umh / subme=10 / psy=1 / fade_compensate=0.00 / psy_rd=1.00:0.00 / mixed_ref=1 / me_range=32 / chroma_me=1 / trellis=2 / 8x8dct=1 / cqm=0 / deadzone=21,11 / fast_pskip=0 / chroma_qp_offset=-2 / threads=16 / lookahead_threads=4 / sliced_threads=0 / nr=0 / decimate=1 / interlaced=0 / bluray_compat=0 / constrained_intra=0 / fgo=0 / bframes=15 / b_pyramid=2 / b_adapt=2 / b_bias=0 / direct=1 / weightb=1 / open_gop=0 / weightp=2 / keyint=240 / keyint_min=23 / scenecut=40 / intra_refresh=0 / rc_lookahead=60 / rc=crf / mbtree=1 / crf=18.3000 / qcomp=0.65 / qpmin=0:0:0 / qpmax=69:69:69 / qpstep=4 / vbv_maxrate=50000 / vbv_bufsize=62500 / crf_max=0.0 / nal_hrd=none / filler=0 / ip_ratio=1.35 / aq=1:1.00 / aq-sensitivity=10.00 / aq-factor=1.00:1.00:1.00 / aq2=0 / aq3=0
Default : Yes
Forced : No
Statistics Tags Issue : mkvmerge v42.0.0 ('Overtime') 64-bit 2021-09-10 14:32:43 / mkvmerge v4.4.0 ('Die Wiederkehr') сборка от Jan 3 2011 21:40:45 2021-09-10 15:35:40
FromStats_BitRate : 1697116
FromStats_Duration : 01:31:20.141000000
FromStats_FrameCount : 131392
FromStats_StreamSize : 1162554451

Audio
ID : 2
Format : AC-3
Format/Info : Audio Coding 3
Commercial name : Dolby Digital
Codec ID : A_AC3
Duration : 1 h 31 min
Bit rate mode : Constant
Bit rate : 384 kb/s
Channel(s) : 6 channels
Channel layout : L R C LFE Ls Rs
Sampling rate : 48.0 kHz
Frame rate : 31.250 FPS (1536 SPF)
Compression mode : Lossy
Stream size : 251 MiB (18%)
Title : iTunes
Language : Russian
Service kind : Complete Main
Default : Yes
Forced : No
скриншот  скриншот  скриншот  
pb.wtf



Скачать Любовь, свидания, Нью-Йорк через торрент https://i5.imageban.ru/out/2021/09/10/4b760a9890bdb2b9441403f56af3ba26.jpg Скачать, смотреть онлайн Любовь, свидания, Нью-Йорк бесплантно в хорошем качестве Описание: Однажды в Нью-Йорке пересекаются судьбы двух молодых людей — Майло и Венди. Они пользовались не одним приложением для знакомств, ... 5 10 1
Торрент: Зарегистрирован [2021-09-10 17:02] · скачан: 65 раз
Статус: √ проверено
Размер: 1.33 GB
Как cкачать? Как скачать Любовь, свидания, Нью-Йорк через торрент | UTorrent

28-11-2019 20:33  

Отключить всю рекламу на сайте

    Дорогой пользователь! Огромная просьба, поблагодарите релизера, оцените раздачу и оставьте свои комментарий, если Вы скачали Любовь, свидания, Нью-Йорк через торрент бесплатно!
    Комментировать посты могут только пользователи прошедшие не сложную регистрацию
    Показать сообщения:    

    Любовь, свидания, Нью-Йорк через торрент
    Скачать бесплатно Любовь, свидания, Нью-Йорк
    Любовь, свидания, Нью-Йорк скачать торрент
    Любовь, свидания, Нью-Йорк смотреть онлайн
    Cкачать фильм Любовь, свидания, Нью-Йорк бесплатно
    Любовь, свидания, Нью-Йорк скачать торрент в хорошем качестве
    Любовь, свидания, Нью-Йорк смотреть онлайн бесплатно в хорошем качестве


    Вы не можете начинать темы
    Вы не можете отвечать на сообщения
    Вы не можете редактировать свои сообщения
    Вы не можете удалять свои сообщения
    Вы не можете голосовать в опросах
    Вы не можете прикреплять файлы к сообщениям
    Вы можете скачивать файлы