Присоединяйтесь к нам в Telegram!, здесь всегда актуальный адрес сайта, оперативная поддержка и многое другое!!

>

5.9

iTunes

7.4

iTunes

9.4

1 сезон

1

7.4

2 сезон

7.2

iTunes

7.3

1 сезон

13

6.1

iTunes

8.3

Пиратка

30

ULTIMATE

pack

9.9

Лицензия

ВАЖНО

ИГРА 18+

pack

7.3

RePack

MK11

7.7

RePack

jed

7.8

RePack

fifa19

8.5

RePack

RDR2

RePack

NEED FOR SPEED™ PAYBACK

5 сезон

9 сезон

Бесстыжие 9 сезон

Все сериалы

все сериалы на PB.wtf

RePack

FAR CRY 5

Anonymous, доброй ночи, мы катастрофически не успеваем собрать деньги на оплату серверов, помогите нам пожалуйста 5,10,15р., для нас важна любая помощь . В качестве благодарности мы отключим Вам всю рекламу на сайте (укажите свой ник в строку Ваше имя)!

×
  
Magnet ссылка

Форсаж 9 / F9 (Джастин Лин) [2021, Боевик, триллер, криминал, приключения, HDRip-AVC] DUB [Театральная версия | iTunes] от MediaBit pb.wtf

Форсаж 9 через торрент pb.wtf

Раздают: 3 [ 0 KB/s ]
Размер: 3.72 GB | Добавлен: 2 мес. 25 д. назад | Торрент скачан:237 раз
Смотреть онлайн Форсаж 9 | Скачать    Ребята, помогите собрать деньги на оплату серверов!!!

10-09-2021 19:21 Форсаж 9 Скачать торрент  


Форсаж 9 / F9
Информация о фильме:
Название: Форсаж 9
Оригинальное название: F9
Год выхода: 2021
Жанр: Боевик, триллер, криминал, приключения
Режиссер: Джастин Лин

В ролях: Вин Дизель, Джон Сина, Тайриз Гибсон, Лудакрис, Джордана Брюстер, Натали Эммануэль, Мишель Родригес, Хелен Миррен, Шарлиз Терон, Майкл Рукер

Описание: Доминик Торетто ведет спокойную жизнь вместе с Летти и сыном Брайаном, но новая опасность всегда где-то рядом. В этот раз Доминику придется встретиться с призраками прошлого, если он хочет спасти самых близких. Команда снова собирается вместе, чтобы предотвратить дерзкий план по захвату мира, который придумал самый опасный преступник и безбашенный водитель из всех, с кем они сталкивались ранее. Ситуация усложняется тем, что этот человек — брат Доминика Джейкоб, которого много лет назад изгнали из семьи.



Страна: США, Таиланд, Канада
Студия: One Race Films, Original Film, Perfect Storm Entertainment, Roth/Kirschenbaum Films, Universal Pictures
Продолжительность: 02:22:51
Перевод: Дублированный - iTunes



Информация о файле:
Кодек: AVC
Формат: MKV
Качество: HDRip-AVC
Видео: MPEG-4 AVC, 1024x428, 23.976 fps, 2516 kbps
Аудио RU: AC3, 6 ch, 48 kHz, 384 kbps
Аудио EN: AC3, 6 ch, 48 kHz, 448 kbps
Аудио UKR: AC3, 6 ch, 48 kHz, 384 kbps
Субтитры: Русские (Full), украинские (Forced), английские

x264 info: frame I:1736 Avg QP:15.79 size: 80531
x264 info: frame P:54099 Avg QP:19.66 size: 24436
x264 info: frame B:149692 Avg QP:21.98 size: 8222
General
Unique ID : 268087010959437386580193471116743172504 (0xC9AFAE224B99A933716B426EFC966198)
Complete name : D:\uTorrent\Рипы wolf1245\F9.2021.DUB.Tiatral.iTunes.HDRip-AVC.[=wolf1245.MediaBit=].mkv
Format : Matroska
Format version : Version 4
File size : 3.72 GiB
Duration : 2 h 22 min
Overall bit rate : 3 731 kb/s
Movie name : F9.2021.DUB.Tiatral.iTunes.HDRip-AVC.[=wolf1245.MediaBit=]
Encoded date : UTC 2021-09-10 19:10:36
Writing application : mkvmerge v61.0.0 ('So') 64-bit
Writing library : libebml v1.4.2 + libmatroska v1.6.4

Video
ID : 1
Format : AVC
Format/Info : Advanced Video Codec
Format profile : High@L4.1
Format settings : CABAC / 14 Ref Frames
Format settings, CABAC : Yes
Format settings, Reference frames : 14 frames
Codec ID : V_MPEG4/ISO/AVC
Duration : 2 h 22 min
Bit rate : 2 516 kb/s
Width : 1 024 pixels
Height : 428 pixels
Display aspect ratio : 2.40:1
Frame rate mode : Constant
Frame rate : 23.976 (24000/1001) FPS
Color space : YUV
Chroma subsampling : 4:2:0
Bit depth : 8 bits
Scan type : Progressive
Bits/(Pixel*Frame) : 0.239
Stream size : 2.51 GiB (67%)
Title : -=[wolf1245.MediaBit]=-
Writing library : x264 core 161 r3020 d198931
Encoding settings : cabac=1 / ref=14 / deblock=1:-3:-3 / analyse=0x3:0x133 / me=umh / subme=10 / psy=1 / psy_rd=1.00:0.20 / mixed_ref=1 / me_range=32 / chroma_me=1 / trellis=2 / 8x8dct=1 / cqm=0 / deadzone=21,11 / fast_pskip=1 / chroma_qp_offset=-3 / threads=10 / lookahead_threads=2 / sliced_threads=0 / nr=0 / decimate=1 / interlaced=0 / bluray_compat=0 / constrained_intra=0 / bframes=12 / b_pyramid=2 / b_adapt=2 / b_bias=0 / direct=3 / weightb=1 / open_gop=0 / weightp=2 / keyint=240 / keyint_min=24 / scenecut=40 / intra_refresh=0 / rc_lookahead=60 / rc=2pass / mbtree=1 / bitrate=2516 / ratetol=1.0 / qcomp=0.60 / qpmin=0 / qpmax=69 / qpstep=4 / cplxblur=20.0 / qblur=0.5 / vbv_maxrate=50000 / vbv_bufsize=62500 / nal_hrd=none / filler=0 / ip_ratio=1.40 / aq=3:0.80
Language : English
Default : Yes
Forced : No

Audio #1
ID : 2
Format : AC-3
Format/Info : Audio Coding 3
Commercial name : Dolby Digital
Codec ID : A_AC3
Duration : 2 h 22 min
Bit rate mode : Constant
Bit rate : 384 kb/s
Channel(s) : 6 channels
Channel layout : L R C LFE Ls Rs
Sampling rate : 48.0 kHz
Frame rate : 31.250 FPS (1536 SPF)
Compression mode : Lossy
Stream size : 392 MiB (10%)
Title : iTunes | DUB | Tiatral
Language : Russian
Service kind : Complete Main
Default : Yes
Forced : No

Audio #2
ID : 3
Format : AC-3
Format/Info : Audio Coding 3
Commercial name : Dolby Digital
Codec ID : A_AC3
Duration : 2 h 22 min
Bit rate mode : Constant
Bit rate : 384 kb/s
Channel(s) : 6 channels
Channel layout : L R C LFE Ls Rs
Sampling rate : 48.0 kHz
Frame rate : 31.250 FPS (1536 SPF)
Compression mode : Lossy
Stream size : 392 MiB (10%)
Title : Dub
Language : Ukrainian
Service kind : Complete Main
Default : No
Forced : No

Audio #3
ID : 4
Format : AC-3
Format/Info : Audio Coding 3
Commercial name : Dolby Digital
Codec ID : A_AC3
Duration : 2 h 22 min
Bit rate mode : Constant
Bit rate : 448 kb/s
Channel(s) : 6 channels
Channel layout : L R C LFE Ls Rs
Sampling rate : 48.0 kHz
Frame rate : 31.250 FPS (1536 SPF)
Compression mode : Lossy
Stream size : 458 MiB (12%)
Title : Original
Language : English
Service kind : Complete Main
Default : No
Forced : No

Text #1
ID : 5
Format : UTF-8
Codec ID : S_TEXT/UTF8
Codec ID/Info : UTF-8 Plain Text
Duration : 2 h 12 min
Bit rate : 55 b/s
Count of elements : 1419
Stream size : 53.2 KiB (0%)
Title : Full
Language : Russian
Default : No
Forced : No

Text #2
ID : 6
Format : UTF-8
Codec ID : S_TEXT/UTF8
Codec ID/Info : UTF-8 Plain Text
Duration : 2 h 9 min
Bit rate : 1 b/s
Count of elements : 40
Stream size : 1.41 KiB (0%)
Title : Forced
Language : Ukrainian
Default : No
Forced : No

Text #3
ID : 7
Format : UTF-8
Codec ID : S_TEXT/UTF8
Codec ID/Info : UTF-8 Plain Text
Duration : 2 h 15 min
Bit rate : 47 b/s
Count of elements : 1557
Stream size : 47.2 KiB (0%)
Title : Full
Language : English
Default : No
Forced : No

Menu
00:00:00.000 : :Глава 01
00:04:47.746 : :Глава 02
00:11:11.212 : :Глава 03
00:20:36.569 : :Глава 04
00:25:26.567 : :Глава 05
00:30:26.867 : :Глава 06
00:34:20.016 : :Глава 07
00:42:13.489 : :Глава 08
00:49:39.768 : :Глава 09
00:55:46.343 : :Глава 10
00:59:57.969 : :Глава 11
01:07:58.866 : :Глава 12
01:19:29.515 : :Глава 13
01:28:47.113 : :Глава 14
01:34:53.438 : :Глава 15
01:40:27.688 : :Глава 16
01:50:56.858 : :Глава 17
02:01:02.880 : :Глава 18
02:05:22.265 : :Глава 19
02:10:17.726 : :Глава 20
Релиз от: &

Автор релиза:
pb.wtf



Скачать Форсаж 9 через торрент https://i115.fastpic.org/big/2021/0801/9d/5e14974a221f2dea26ba10a52830249d.jpg Скачать, смотреть онлайн Форсаж 9 бесплантно в хорошем качестве Описание: Доминик Торетто ведет спокойную жизнь вместе с Летти и сыном Брайаном, но новая опасность всегда где-то рядом. В этот раз ... 10 10 6
Торрент: Зарегистрирован [2021-09-10 19:21] · скачан: 237 раз
Статус: √ проверено
Размер: 3.72 GB
Как cкачать? Как скачать Форсаж 9 через торрент | UTorrent

28-11-2019 20:33  

Отключить всю рекламу на сайте

    Дорогой пользователь! Огромная просьба, поблагодарите релизера, оцените раздачу и оставьте свои комментарий, если Вы скачали Форсаж 9 через торрент бесплатно!
    Комментировать посты могут только пользователи прошедшие не сложную регистрацию
    Показать сообщения:    

    Форсаж 9 через торрент
    Скачать бесплатно Форсаж 9
    Форсаж 9 скачать торрент
    Форсаж 9 смотреть онлайн
    Cкачать фильм Форсаж 9 бесплатно
    Форсаж 9 скачать торрент в хорошем качестве
    Форсаж 9 смотреть онлайн бесплатно в хорошем качестве


    Вы не можете начинать темы
    Вы не можете отвечать на сообщения
    Вы не можете редактировать свои сообщения
    Вы не можете удалять свои сообщения
    Вы не можете голосовать в опросах
    Вы не можете прикреплять файлы к сообщениям
    Вы можете скачивать файлы