Достать ножи: Стеклянная луковица

MVO

Добыча

Дубляж

Уэнсдэй

1 сезон

Тор

Дубляж

13 клиническая

1 сезон

Жестокая ночь

MVO

Одни из нас

1 сезон

Deluxe

pack

Рекомендуем

30

Пиратка

ВАЖНО

ВАЖНО

Ghostwire

Пиратка

jed

RePack

nioh2

RePack

RDR2

RePack

NEED FOR SPEED™ PAYBACK

RePack

скачать торрент

Кинопоиск HD

Острые козырьки 6 сезон

6 сезон

FAR CRY 6

RePack

скачать торрент

Лицензия

скачать торрент

MVO

1

1 сезон

скачать торрент

1 сезон

скачать торрент

Лицензия

  

Кейт / Kate (Седрик Николя-Троян) [2021, Боевик, триллер, криминал, WEB-DLRip-AVC] Дубляж [Netflix] от MediaBit

Кейт через торрент pb.wtf

Раздают: 1 [ 0 KB/s ]
Размер: 2.86 GB | Добавлен: 1 год 4 мес. назад | Торрент скачан:289 раз
Смотреть онлайн | Скачать | Поддержите нас   

11-09-2021 06:49 Кейт Скачать торрент  


Кейт / Kate
Информация Описание:
Название: Кейт
Оригинальное название: Kate
Год выхода: 2021
Жанр: боевик, триллер, криминал
Режиссер: Седрик Николя-Троян
В ролях: Мэри Элизабет Уинстэд, Вуди Харрельсон, Михиль Хаусман, Таданобу Асано, Элисия Ротару, Амелия Крауч, Мияви, Дзюн Кунимура, Жан-Луп Пилблад, Оуэн О’Брайен

Описание: Безжалостную преступницу отравили, и у неё осталось меньше 24 часов, чтобы отомстить. В процессе она неожиданно сближается с дочерью одной из своих жертв.



Страна: США
Студия: 87North, Screen Arcade
Продолжительность: 01:45:22
Перевод: Дублированный - Netflix

Информация о файле:
Кодек: AVC
Формат: MKV
Качество: WEB-DLRip-AVC
Видео: MPEG-4 AVC, 1024x428, 24,000 fps, 2488 kbps
Аудио RU: AC3, 6 ch, 48 kHz, 448 kbps
Аудио EN: AC3, 6 ch, 48 kHz, 448 kbps
Аудио UKR: AC3, 6 ch, 48 kHz, 448 kbps
Субтитры: Русские (Forced, full), украинские (Forced, full), английские

семпл
General
Unique ID : 44342545452879512589277367582699102189 (0x215C1048BB7158E1CEAAD4B1DF111FED)
Complete name : D:\uTorrent\Рипы wolf1245\Kate.2021.Дубляж.Netflix.WEB-DLRip-AVC.[=wolf1245.MediaBit=].mkv
Format : Matroska
Format version : Version 4
File size : 2.86 GiB
Duration : 1 h 47 min
Overall bit rate : 3 791 kb/s
Movie name : Kate.2021.Дубляж.Netflix.WEB-DLRip-AVC.[=wolf1245.MediaBit=]
Encoded date : UTC 2021-09-11 06:38:55
Writing application : mkvmerge v61.0.0 ('So') 64-bit
Writing library : libebml v1.4.2 + libmatroska v1.6.4

Video
ID : 1
Format : AVC
Format/Info : Advanced Video Codec
Format profile : [email protected]
Format settings : CABAC / 14 Ref Frames
Format settings, CABAC : Yes
Format settings, Reference frames : 14 frames
Codec ID : V_MPEG4/ISO/AVC
Duration : 1 h 46 min
Bit rate : 2 488 kb/s
Width : 1 024 pixels
Height : 428 pixels
Display aspect ratio : 2.40:1
Frame rate mode : Constant
Frame rate : 24.000 FPS
Color space : YUV
Chroma subsampling : 4:2:0
Bit depth : 8 bits
Scan type : Progressive
Bits/(Pixel*Frame) : 0.237
Stream size : 1.85 GiB (65%)
Title : -=[wolf1245.MediaBit]=-
Writing library : x264 core 161 r3020 d198931
Encoding settings : cabac=1 / ref=14 / deblock=1:-3:-2 / analyse=0x3:0x133 / me=umh / subme=10 / psy=1 / psy_rd=1.00:0.20 / mixed_ref=1 / me_range=32 / chroma_me=1 / trellis=2 / 8x8dct=1 / cqm=0 / deadzone=21,11 / fast_pskip=1 / chroma_qp_offset=-3 / threads=10 / lookahead_threads=2 / sliced_threads=0 / nr=0 / decimate=1 / interlaced=0 / bluray_compat=0 / constrained_intra=0 / bframes=12 / b_pyramid=2 / b_adapt=2 / b_bias=0 / direct=3 / weightb=1 / open_gop=0 / weightp=2 / keyint=240 / keyint_min=24 / scenecut=40 / intra_refresh=0 / rc_lookahead=60 / rc=2pass / mbtree=1 / bitrate=2488 / ratetol=1.0 / qcomp=0.60 / qpmin=0 / qpmax=69 / qpstep=4 / cplxblur=20.0 / qblur=0.5 / vbv_maxrate=50000 / vbv_bufsize=62500 / nal_hrd=none / filler=0 / ip_ratio=1.40 / aq=3:0.80
Language : English
Default : Yes
Forced : No

Audio #1
ID : 2
Format : AC-3
Format/Info : Audio Coding 3
Commercial name : Dolby Digital
Codec ID : A_AC3
Duration : 1 h 47 min
Bit rate mode : Constant
Bit rate : 448 kb/s
Channel(s) : 6 channels
Channel layout : L R C LFE Ls Rs
Sampling rate : 48.0 kHz
Frame rate : 31.250 FPS (1536 SPF)
Compression mode : Lossy
Stream size : 346 MiB (12%)
Title : Дубляж | Netflix
Language : Russian
Service kind : Complete Main
Default : Yes
Forced : No

Audio #2
ID : 3
Format : AC-3
Format/Info : Audio Coding 3
Commercial name : Dolby Digital
Codec ID : A_AC3
Duration : 1 h 47 min
Bit rate mode : Constant
Bit rate : 448 kb/s
Channel(s) : 6 channels
Channel layout : L R C LFE Ls Rs
Sampling rate : 48.0 kHz
Frame rate : 31.250 FPS (1536 SPF)
Compression mode : Lossy
Stream size : 346 MiB (12%)
Title : Дубляж
Language : Ukrainian
Service kind : Complete Main
Default : No
Forced : No

Audio #3
ID : 4
Format : AC-3
Format/Info : Audio Coding 3
Commercial name : Dolby Digital
Codec ID : A_AC3
Duration : 1 h 46 min
Bit rate mode : Constant
Bit rate : 448 kb/s
Channel(s) : 6 channels
Channel layout : L R C LFE Ls Rs
Sampling rate : 48.0 kHz
Frame rate : 31.250 FPS (1536 SPF)
Compression mode : Lossy
Stream size : 341 MiB (12%)
Title : Original
Language : English
Service kind : Complete Main
Default : No
Forced : No

Text #1
ID : 5
Format : UTF-8
Codec ID : S_TEXT/UTF8
Codec ID/Info : UTF-8 Plain Text
Duration : 1 h 45 min
Bit rate : 9 b/s
Count of elements : 183
Stream size : 7.35 KiB (0%)
Title : Forced
Language : Russian
Default : Yes
Forced : Yes

Text #2
ID : 6
Format : UTF-8
Codec ID : S_TEXT/UTF8
Codec ID/Info : UTF-8 Plain Text
Duration : 1 h 45 min
Bit rate : 42 b/s
Count of elements : 808
Stream size : 33.0 KiB (0%)
Title : Full
Language : Russian
Default : No
Forced : No

Text #3
ID : 7
Format : UTF-8
Codec ID : S_TEXT/UTF8
Codec ID/Info : UTF-8 Plain Text
Duration : 1 h 45 min
Bit rate : 9 b/s
Count of elements : 189
Stream size : 7.23 KiB (0%)
Title : Forced
Language : Ukrainian
Default : No
Forced : No

Text #4
ID : 8
Format : UTF-8
Codec ID : S_TEXT/UTF8
Codec ID/Info : UTF-8 Plain Text
Duration : 1 h 45 min
Bit rate : 40 b/s
Count of elements : 805
Stream size : 31.5 KiB (0%)
Title : Full
Language : Ukrainian
Default : No
Forced : No

Text #5
ID : 9
Format : UTF-8
Codec ID : S_TEXT/UTF8
Codec ID/Info : UTF-8 Plain Text
Duration : 1 h 34 min
Bit rate : 41 b/s
Count of elements : 1097
Stream size : 29.1 KiB (0%)
Language : English
Default : No
Forced : No
Релиз от: amp; MediaBit




Скачать Кейт через торрент https://i115.fastpic.org/big/2021/0911/b1/e209f3ba7d38ffb13978b1b26305b3b1.jpg Скачать, смотреть онлайн Кейт бесплантно в хорошем качестве Описание:Название: КейтОригинальное название: KateГод выхода: 2021Жанр: боевик, триллер, криминал Режиссер: Седрик Николя-ТроянВ ролях: ... 9.7 10 6
Торрент: Зарегистрирован [2021-09-11 06:49] · скачан: 289 раз
Статус: √ проверено
Размер: 2.86 GB
Как cкачать? Как скачать Кейт через торрент | UTorrent

28-11-2019 20:33  


Отключить вcю реклaмy на сайте, в т.ч. и в плеере онлайн просмотра!

13-09-2021 20:21 Кейт Скачать торрент  

Полнейшая хрень!



01-11-2021 12:54 Кейт Скачать торрент  

Классный Фильм . Редкость . Обычно у Netflix говно



28-01-2022 22:30 Кейт Скачать торрент  

фильм довольно не плохой, с хорошим японским колоритом. да есть к чему придраться, но сейчас и так мало хороших фильмов.



    Дорогой пользователь! Огромная просьба, поблагодарите релизера, оцените раздачу и оставьте свои комментарий, если Вы скачали Кейт через торрент бесплатно!!
    Комментировать посты могут только пользователи прошедшие не сложную регистрацию
    Показать сообщения:    


    Кейт через торрент
    Скачать бесплатно Кейт
    Кейт скачать торрент
    Кейт смотреть онлайн
    Cкачать фильм Кейт бесплатно
    Кейт скачать торрент в хорошем качестве
    Кейт смотреть онлайн бесплатно в хорошем качестве
    Вы не можете начинать темы
    Вы не можете отвечать на сообщения
    Вы не можете редактировать свои сообщения
    Вы не можете удалять свои сообщения
    Вы не можете голосовать в опросах
    Вы не можете прикреплять файлы к сообщениям
    Вы можете скачивать файлы
    Кейт / Kate [2021, Боевик, триллер, криминал, WEB-DLRip-AVC] Дубляж [Netflix] от MediaBit смотреть онлайн, скачать торрент picoco.icu