Присоединяйтесь к нам в Telegram!, здесь всегда актуальный адрес сайта, оперативная поддержка и многое другое!!

>

5.9

iTunes

7.4

iTunes

9.4

1 сезон

1

7.4

2 сезон

7.2

iTunes

7.3

1 сезон

13

6.1

iTunes

8.3

GOG

30

ULTIMATE

pack

9.9

Лицензия

ВАЖНО

ИГРА 18+

pack

7.3

RePack

MK11

7.7

RePack

jed

7.8

RePack

fifa19

8.5

RePack

RDR2

RePack

NEED FOR SPEED™ PAYBACK

5 сезон

9 сезон

Бесстыжие 9 сезон

Все сериалы

все сериалы на PB.wtf

RePack

FAR CRY 5

Anonymous, доброе утро, мы катастрофически не успеваем собрать деньги на оплату серверов, помогите нам пожалуйста 5,10,15р., для нас важна любая помощь . В качестве благодарности мы отключим Вам всю рекламу на сайте (укажите свой ник в строку Ваше имя)!

×
  
Magnet ссылка

Мой психолог - Мистер Голубь / Dr. Bird's Advice for Sad Poets (Янив Раз) [2021, драма, комедия, детектив, WEB-DLRip-AVC] DUB [iTunes] от MediaBit pb.wtf

Мой психолог - Мистер Голубь через торрент pb.wtf

Раздают: 1 [ 0 KB/s ]
Размер: 2.17 GB | Добавлен: 2 мес. 15 д. назад | Торрент скачан:24 раза
Смотреть онлайн Мой психолог - Мистер Голубь | Скачать    Ребята, помогите собрать деньги на оплату серверов!!!

11-09-2021 17:03 Мой психолог - Мистер Голубь Скачать торрент  


Мой психолог - Мистер Голубь / Dr. Bird's Advice for Sad Poets
Информация о фильме:
Название: Мой психолог - Мистер Голубь
Оригинальное название: Dr. Bird's Advice for Sad Poets
Год выхода: 2021
Жанр: драма, комедия, детектив
Режиссер: Янив Раз
В ролях: Тейлор Расселл, Джейсон Айзекс, Чейз Стоукс, Лиза Эдельштейн, Дэвид Аркетт, Том Уилкинсон, Лукас Джейд Зуманн, Яя Госселин, Кэролайн Фридлюнд, Хантер Денойеллс, Лили Донохью, Роджер Дэйл Флойд, Одисеас Георгиадис, Дж. Гэйвен Уайлд, Тайлер Банч

Описание: Шестнадцатилетний Джеймс Уитмен пытается преодолеть тревогу и депрессию после исчезновения его сестры, обращаясь за советом к доктору Бёрду, воображаемому терапевту-голубю.



Страна: США
Студия: Ketchup Entertainment, Kreate Films, Particular Crowd, Storyboard Media
Продолжительность: 01:49:29
Перевод: Дублированный - iTunes



Информация о файле:
Кодек: AVC
Формат: MKV
Качество: WEB-DLRip-AVC
Видео: MPEG-4 AVC, 1024x576, 23.976 fps, 1999 kb/s
Аудио RU: AC3, 6 ch, 48 kHz, 384 kbps
Аудио EN: AC3, 6 ch, 48 kHz, 448 kbps

x264 info: frame I:1633 Avg QP:14.65 size: 80638
x264 info: frame P:33952 Avg QP:17.96 size: 22527
x264 info: frame B:121926 Avg QP:20.80 size: 6110
General
Unique ID : 183178437947047905438336682763357970469 (0x89CEE2460399DB0B1B782E42EFAAE025)
Complete name : D:\uTorrent\Рипы wolf1245\Dr. Bird's Advice for Sad Poets.2021.DUB.ITUNES.WEB-DLRip-AVC.[0_0wolf1245.MediaBit0_0].mkv
Format : Matroska
Format version : Version 4
File size : 2.17 GiB
Duration : 1 h 49 min
Overall bit rate : 2 833 kb/s
Movie name : Dr. Bird's Advice for Sad Poets.2021.DUB.ITUNES.WEB-DLRip-AVC.[0_0wolf1245.MediaBit0_0]
Encoded date : UTC 2021-09-11 16:49:32
Writing application : mkvmerge v61.0.0 ('So') 64-bit
Writing library : libebml v1.4.2 + libmatroska v1.6.4

Video
ID : 1
Format : AVC
Format/Info : Advanced Video Codec
Format profile : High@L4.1
Format settings : CABAC / 14 Ref Frames
Format settings, CABAC : Yes
Format settings, Reference frames : 14 frames
Codec ID : V_MPEG4/ISO/AVC
Duration : 1 h 49 min
Bit rate : 1 999 kb/s
Width : 1 024 pixels
Height : 576 pixels
Display aspect ratio : 16:9
Frame rate mode : Constant
Frame rate : 23.976 (24000/1001) FPS
Color space : YUV
Chroma subsampling : 4:2:0
Bit depth : 8 bits
Scan type : Progressive
Bits/(Pixel*Frame) : 0.141
Stream size : 1.53 GiB (71%)
Title : -=[wolf1245.MediaBit]=-
Writing library : x264 core 161 r3020 d198931
Encoding settings : cabac=1 / ref=14 / deblock=1:-2:-2 / analyse=0x3:0x133 / me=umh / subme=10 / psy=1 / psy_rd=0.98:0.05 / mixed_ref=1 / me_range=32 / chroma_me=1 / trellis=2 / 8x8dct=1 / cqm=0 / deadzone=21,11 / fast_pskip=1 / chroma_qp_offset=-3 / threads=10 / lookahead_threads=2 / sliced_threads=0 / nr=0 / decimate=1 / interlaced=0 / bluray_compat=0 / constrained_intra=0 / bframes=12 / b_pyramid=2 / b_adapt=2 / b_bias=0 / direct=3 / weightb=1 / open_gop=0 / weightp=2 / keyint=240 / keyint_min=24 / scenecut=40 / intra_refresh=0 / rc_lookahead=60 / rc=2pass / mbtree=1 / bitrate=1999 / ratetol=1.0 / qcomp=0.60 / qpmin=0 / qpmax=69 / qpstep=4 / cplxblur=20.0 / qblur=0.5 / vbv_maxrate=50000 / vbv_bufsize=62500 / nal_hrd=none / filler=0 / ip_ratio=1.40 / aq=3:0.80
Language : English
Default : Yes
Forced : No
Color range : Limited
Color primaries : BT.709
Transfer characteristics : BT.709
Matrix coefficients : BT.709

Audio #1
ID : 2
Format : AC-3
Format/Info : Audio Coding 3
Commercial name : Dolby Digital
Codec ID : A_AC3
Duration : 1 h 49 min
Bit rate mode : Constant
Bit rate : 384 kb/s
Channel(s) : 6 channels
Channel layout : L R C LFE Ls Rs
Sampling rate : 48.0 kHz
Frame rate : 31.250 FPS (1536 SPF)
Compression mode : Lossy
Stream size : 301 MiB (14%)
Title : iTunes | DUB
Language : Russian
Service kind : Complete Main
Default : Yes
Forced : No

Audio #2
ID : 3
Format : AC-3
Format/Info : Audio Coding 3
Commercial name : Dolby Digital
Codec ID : A_AC3
Duration : 1 h 49 min
Bit rate mode : Constant
Bit rate : 448 kb/s
Channel(s) : 6 channels
Channel layout : L R C LFE Ls Rs
Sampling rate : 48.0 kHz
Frame rate : 31.250 FPS (1536 SPF)
Compression mode : Lossy
Stream size : 351 MiB (16%)
Title : Original
Language : English
Service kind : Complete Main
Default : No
Forced : No
Релиз от: &

Автор релиза:
pb.wtf



Скачать Мой психолог - Мистер Голубь через торрент https://a.radikal.ru/a35/2109/0d/397687655d18.jpg Скачать, смотреть онлайн Мой психолог - Мистер Голубь бесплантно в хорошем качестве Описание: Шестнадцатилетний Джеймс Уитмен пытается преодолеть тревогу и депрессию после исчезновения его сестры, обращаясь за советом к ... 10 10 3
Торрент: Зарегистрирован [2021-09-11 17:03] · скачан: 24 раз
Статус: √ проверено
Размер: 2.17 GB
Как cкачать? Как скачать Мой психолог - Мистер Голубь через торрент | UTorrent

28-11-2019 20:33  

Отключить всю рекламу на сайте

    Дорогой пользователь! Огромная просьба, поблагодарите релизера, оцените раздачу и оставьте свои комментарий, если Вы скачали Мой психолог - Мистер Голубь через торрент бесплатно!
    Комментировать посты могут только пользователи прошедшие не сложную регистрацию
    Показать сообщения:    

    Мой психолог - Мистер Голубь через торрент
    Скачать бесплатно Мой психолог - Мистер Голубь
    Мой психолог - Мистер Голубь скачать торрент
    Мой психолог - Мистер Голубь смотреть онлайн
    Cкачать фильм Мой психолог - Мистер Голубь бесплатно
    Мой психолог - Мистер Голубь скачать торрент в хорошем качестве
    Мой психолог - Мистер Голубь смотреть онлайн бесплатно в хорошем качестве


    Вы не можете начинать темы
    Вы не можете отвечать на сообщения
    Вы не можете редактировать свои сообщения
    Вы не можете удалять свои сообщения
    Вы не можете голосовать в опросах
    Вы не можете прикреплять файлы к сообщениям
    Вы можете скачивать файлы