Присоединяйтесь к нам в Telegram!, здесь всегда актуальный адрес сайта, оперативная поддержка и многое другое!!

>

5.9

iTunes

7.4

iTunes

9.4

1 сезон

1

7.4

2 сезон

7.2

iTunes

7.3

1 сезон

13

6.1

iTunes

8.3

GOG

30

ULTIMATE

pack

9.9

Лицензия

ВАЖНО

ИГРА 18+

pack

7.3

RePack

MK11

7.7

RePack

jed

7.8

RePack

fifa19

8.5

RePack

RDR2

RePack

NEED FOR SPEED™ PAYBACK

5 сезон

9 сезон

Бесстыжие 9 сезон

Все сериалы

все сериалы на PB.wtf

RePack

FAR CRY 5

Anonymous, добрый вечер, мы катастрофически не успеваем собрать деньги на оплату серверов, помогите нам пожалуйста 5,10,15р., для нас важна любая помощь . В качестве благодарности мы отключим Вам всю рекламу на сайте (укажите свой ник в строку Ваше имя)!

×
  
Magnet ссылка

Любовь, свидания, Нью-Йорк / Dating & New York (Джона Фейнголд) [2021 г., комедия, WEB-DLRip, Дубляж "iTunes"] pb.wtf

Любовь, свидания, Нью-Йорк через торрент pb.wtf

Размер: 714 MB | Добавлен: 2 мес. 19 д. назад | Торрент скачан:7 раз
Смотреть онлайн Любовь, свидания, Нью-Йорк | Скачать    Ребята, помогите собрать деньги на оплату серверов!!!

11-09-2021 18:31 Любовь, свидания, Нью-Йорк Скачать торрент  

Любовь свидания Нью-Йорк / Dating & New York
Год выпуска: 2021
Страна: США / MXN Entertainment „ York Ave Department of Motion Pictures
Жанр: комедия
Продолжительность: 01:31:20
Перевод: Дубляж (iTunes)

Режиссер: Джона Фейнголд

rating

В ролях: Франческа Реале, Джабук Янг-Уайт, Катрин Коэн, Брайан Мюллер, Джерри Феррара, Артуро Кастро, Тейлор Мари Хилл, Джона Фейнголд, Алекс Моффат, Сондра Джеймс

Описание: Однажды в Нью-Йорке пересекаются судьбы двух молодых людей — Майло и Венди. Они пользовались не одним приложением для знакомств, ходили на кучу свиданий и смотрели все романтические комедии, поэтому думают, что знают об отношениях всё. Но, договариваясь на секс по дружбе и обещая, что не будут испытывать друг к другу чувств, они бросают вызов тому, что не поддаётся рассудку — любви.

Качество: WEB-DLRip
Формат: AVI
Видео кодек: DivX
Аудио кодек: MP3
Видео: 640x352 (1.82:1), 23.976 fps, DivX Codec 4.x ~955 kbps avg, 0.18 bit/pixel
Аудио: 48 kHz, MPEG Layer 3, 2 ch, ~128.00 kbps avg

Общее
Полное имя : G:\ФИЛЬМЫ\Любовь, свидания, Нью-Йорк.2021.D.WEB-DLRip.avi
Формат : AVI
Формат/Информация : Audio Video Interleave
Размер файла : 714 Мбайт
Продолжительность : 1 ч. 31 м.
Общий поток : 1 093 Кбит/сек
Программа кодирования : VirtualDubMod 1.5.10.3 | www.virtualdub-fr.org || (build 2550/release)
Библиотека кодирования : VirtualDubMod build 2550/release

Видео
Идентификатор : 0
Формат : MPEG-4 Visual
Профиль формата : Advanced Simple@L5
Настройки формата : BVOP2
Параметр BVOP формата : 2
Параметр QPel формата : Нет
Параметр GMC формата : Без точки перехода
Параметр матрицы формата : Default (MPEG)
Идентификатор кодека : DIVX
Идентификатор кодека/Информация : Project Mayo
Идентификатор кодека/Подсказка : DivX 4
Продолжительность : 1 ч. 31 м.
Битрейт : 955 Кбит/сек
Ширина : 640 пикселей
Высота : 352 пикселя
Соотношение сторон : 16:9
Частота кадров : 23,976 (24000/1001) кадра/сек
Цветовое пространство : YUV
Субдискретизация насыщенности : 4:2:0
Битовая глубина : 8 бит
Тип развёртки : Прогрессивная
Метод сжатия : С потерями
Бит/(Пиксели*Кадры) : 0.177
Размер потока : 624 Мбайт (87%)
Библиотека кодирования : XviD 1.2.1 (UTC 2008-12-04)

Аудио
Идентификатор : 1
Формат : MPEG Audio
Версия формата : Version 1
Профиль формата : Layer 3
Настройки формата : Joint stereo / MS Stereo
Идентификатор кодека : 55
Идентификатор кодека/Подсказка : MP3
Продолжительность : 1 ч. 31 м.
Вид битрейта : Постоянный
Битрейт : 128 Кбит/сек
Каналы : 2 канала
Частота : 48,0 КГц
Частота кадров : 41,667 кадра/сек (1152 SPF)
Метод сжатия : С потерями
Размер потока : 83,6 Мбайт (12%)
Выравнивание : Соединение по промежуткам
Продолжительность промежутка : 42 мс. (1,00 видеокадр)
Время предзагрузки промежутка : 504 мс.
Библиотека кодирования : LAME3.99r
Настройки программы : -m j -V 4 -q 2 -lowpass 17 -b 128

Report created by : MediaInfoLib - v21.03
Report created on : UTC 2021-09-11 18:05:17

pb.wtf



Скачать Любовь, свидания, Нью-Йорк через торрент https://pic1.kartinco.top/new/img/2021-09/11/smgiustuyc23c7wq50jwtjg7r.jpg Скачать, смотреть онлайн Любовь, свидания, Нью-Йорк бесплантно в хорошем качестве Описание: Однажды в Нью-Йорке пересекаются судьбы двух молодых людей — Майло и Венди. Они пользовались не одним приложением для знакомств, ... 5 10 4
Торрент: Зарегистрирован [2021-09-11 18:31] · скачан: 7 раз
Статус: √ проверено
Размер: 714 MB
Как cкачать? Как скачать Любовь, свидания, Нью-Йорк через торрент | UTorrent

28-11-2019 20:33  

Отключить всю рекламу на сайте

    Дорогой пользователь! Огромная просьба, поблагодарите релизера, оцените раздачу и оставьте свои комментарий, если Вы скачали Любовь, свидания, Нью-Йорк через торрент бесплатно!
    Комментировать посты могут только пользователи прошедшие не сложную регистрацию
    Показать сообщения:    

    Любовь, свидания, Нью-Йорк через торрент
    Скачать бесплатно Любовь, свидания, Нью-Йорк
    Любовь, свидания, Нью-Йорк скачать торрент
    Любовь, свидания, Нью-Йорк смотреть онлайн
    Cкачать фильм Любовь, свидания, Нью-Йорк бесплатно
    Любовь, свидания, Нью-Йорк скачать торрент в хорошем качестве
    Любовь, свидания, Нью-Йорк смотреть онлайн бесплатно в хорошем качестве


    Вы не можете начинать темы
    Вы не можете отвечать на сообщения
    Вы не можете редактировать свои сообщения
    Вы не можете удалять свои сообщения
    Вы не можете голосовать в опросах
    Вы не можете прикреплять файлы к сообщениям
    Вы можете скачивать файлы