Присоединяйтесь к нам в Telegram!, здесь всегда актуальный адрес сайта, оперативная поддержка и многое другое!!

>

5.9

iTunes

7.4

iTunes

9.4

1 сезон

1

7.4

2 сезон

7.2

iTunes

7.3

1 сезон

13

6.1

iTunes

8.3

GOG

30

ULTIMATE

pack

9.9

Лицензия

ВАЖНО

ИГРА 18+

pack

7.3

RePack

MK11

7.7

RePack

jed

7.8

RePack

fifa19

8.5

RePack

RDR2

RePack

NEED FOR SPEED™ PAYBACK

5 сезон

9 сезон

Бесстыжие 9 сезон

Все сериалы

все сериалы на PB.wtf

RePack

FAR CRY 5

Anonymous, доброй ночи, мы катастрофически не успеваем собрать деньги на оплату серверов, помогите нам пожалуйста 5,10,15р., для нас важна любая помощь . В качестве благодарности мы отключим Вам всю рекламу на сайте (укажите свой ник в строку Ваше имя)!

×
  
Magnet ссылка

Злое / Malignant (Джеймс Ван) [2021, Ужасы, HDRip-AVC] DUB [Пифагор] от ExKinoRay pb.wtf

Злое через торрент pb.wtf

Раздают: 2 [ 0 KB/s ]
Размер: 2.06 GB | Добавлен: 7 д. назад | Торрент скачан:6 раз
Смотреть онлайн Злое | Скачать    Ребята, помогите собрать деньги на оплату серверов!!!

12-09-2021 08:16 Злое Скачать торрент  


Злое / Malignant
Информация о фильме:
Название: Злое
Оригинальное название: Malignant
Год выхода: 2021
Жанр: Ужасы
Режиссер: Джеймс Ван

В ролях: Аннабелль Уоллис, Мэдди Хассон, Джордж Янг, Жаклин МакКензи, Ингрид Бису, Миколь Уайт, Пола Маршалл, Джейк Эйбел, Патрик Кокс, Рэйчел Уинфри

Описание: Жизнь Мэдисон превращается в настоящий кошмар, когда в своих снах она становится свидетельницей зверских убийств. Но что, если ночные видения — на самом деле жестокая реальность? Есть ли у Мэдисон шанс их предотвратить?



Страна: США, Китай, Румыния
Студия: Atomic MonsterBoom EntertainmentBoom! Studios
Продолжительность: 01:51:35
Перевод: Дублированный - Пифагор



Информация о файле:
Кодек: AVC
Формат: MKV
Качество: HDRip-AVC
Видео: MPEG-4 AVC, 1024x428, 23.976 fps, 1750 kbps
Аудио RU: AC3, 6 ch, 48 kHz, 448 kbps
Аудио EN: AC3, 6 ch, 48 kHz, 448 kbps
Субтитры: Русские (Forced, full), английские

x264 info: frame I:1263 Avg QP:14.00 size: 64272
x264 info: frame P:34999 Avg QP:17.46 size: 19174
x264 info: frame B:124261 Avg QP:19.68 size: 5719
x264 info: consecutive B-frames: 2.5% 3.5% 7.5% 17.4% 17.1% 37.1% 7.3% 3.3% 2.6% 1.3% 0.5%
General
Unique ID : 315041026612828725469932283315742454273 (0xED02B1D6F8065BCEA9FDD4817A2E3201)
Complete name : D:uTorrentРипы wolf1245Malignant.2021.DUB.PIFAGOR.HDRip-AVC.[wolf1245.ExKinoRay].mkv
Format : Matroska
Format version : Version 4
File size : 2.06 GiB
Duration : 1 h 51 min
Overall bit rate : 2 646 kb/s
Movie name : Malignant.2021.DUB.PIFAGOR.HDRip-AVC.[wolf1245.ExKinoRay]
Encoded date : UTC 2021-11-19 20:51:14
Writing application : mkvmerge v63.0.0 ('Everything') 64-bit
Writing library : libebml v1.4.2 + libmatroska v1.6.4
Video
ID : 1
Format : AVC
Format/Info : Advanced Video Codec
Format profile : High@L4.1
Format settings : CABAC / 12 Ref Frames
Format settings, CABAC : Yes
Format settings, Reference frames : 12 frames
Codec ID : V_MPEG4/ISO/AVC
Duration : 1 h 51 min
Bit rate : 1 750 kb/s
Width : 1 024 pixels
Height : 428 pixels
Display aspect ratio : 2.40:1
Frame rate mode : Constant
Frame rate : 23.976 (24000/1001) FPS
Color space : YUV
Chroma subsampling : 4:2:0
Bit depth : 8 bits
Scan type : Progressive
Bits/(Pixel*Frame) : 0.167
Stream size : 1.36 GiB (66%)
Title : -=[wolf1245.ExKinoRay]=-
Writing library : x264 core 163 r3060 5db6aa6
Encoding settings : cabac=1 / ref=12 / deblock=1:-3:-3 / analyse=0x3:0x133 / me=umh / subme=11 / psy=1 / psy_rd=1.03:0.07 / mixed_ref=1 / me_range=48 / chroma_me=1 / trellis=2 / 8x8dct=1 / cqm=0 / deadzone=21,11 / fast_pskip=1 / chroma_qp_offset=-3 / threads=10 / lookahead_threads=2 / sliced_threads=0 / nr=0 / decimate=0 / interlaced=0 / bluray_compat=0 / constrained_intra=0 / bframes=10 / b_pyramid=2 / b_adapt=2 / b_bias=0 / direct=3 / weightb=1 / open_gop=0 / weightp=2 / keyint=240 / keyint_min=24 / scenecut=40 / intra_refresh=0 / rc_lookahead=60 / rc=2pass / mbtree=0 / bitrate=1750 / ratetol=1.0 / qcomp=0.60 / qpmin=0 / qpmax=69 / qpstep=4 / cplxblur=20.0 / qblur=0.5 / vbv_maxrate=50000 / vbv_bufsize=62500 / nal_hrd=none / filler=0 / ip_ratio=1.40 / pb_ratio=1.30 / aq=1:0.80
Language : English
Default : Yes
Forced : No
Color range : Limited
Color primaries : BT.709
Matrix coefficients : BT.709
Audio #1
ID : 2
Format : AC-3
Format/Info : Audio Coding 3
Commercial name : Dolby Digital
Codec ID : A_AC3
Duration : 1 h 51 min
Bit rate mode : Constant
Bit rate : 448 kb/s
Channel(s) : 6 channels
Channel layout : L R C LFE Ls Rs
Sampling rate : 48.0 kHz
Frame rate : 31.250 FPS (1536 SPF)
Compression mode : Lossy
Stream size : 358 MiB (17%)
Title : Dub | Пифагор
Language : Russian
Service kind : Complete Main
Default : No
Forced : No
Audio #2
ID : 3
Format : AC-3
Format/Info : Audio Coding 3
Commercial name : Dolby Digital
Codec ID : A_AC3
Duration : 1 h 51 min
Bit rate mode : Constant
Bit rate : 448 kb/s
Channel(s) : 6 channels
Channel layout : L R C LFE Ls Rs
Sampling rate : 48.0 kHz
Frame rate : 31.250 FPS (1536 SPF)
Compression mode : Lossy
Stream size : 358 MiB (17%)
Title : Original
Language : English
Service kind : Complete Main
Default : Yes
Forced : No
Text #1
ID : 4
Format : UTF-8
Codec ID : S_TEXT/UTF8
Codec ID/Info : UTF-8 Plain Text
Duration : 1 h 37 min
Bit rate : 1 b/s
Count of elements : 27
Stream size : 1.01 KiB (0%)
Title : Forced
Language : Russian
Default : Yes
Forced : Yes
Text #2
ID : 5
Format : UTF-8
Codec ID : S_TEXT/UTF8
Codec ID/Info : UTF-8 Plain Text
Duration : 1 h 50 min
Bit rate : 49 b/s
Count of elements : 871
Stream size : 39.9 KiB (0%)
Title : Full
Language : Russian
Default : No
Forced : No
Text #3
ID : 6
Format : UTF-8
Codec ID : S_TEXT/UTF8
Codec ID/Info : UTF-8 Plain Text
Duration : 1 h 47 min
Bit rate : 45 b/s
Count of elements : 1397
Stream size : 35.7 KiB (0%)
Language : English
Default : No
Forced : No
Menu
00:00:00.000 : :Chapter 01
00:06:11.204 : :Chapter 02
00:15:46.821 : :Chapter 03
00:25:23.564 : :Chapter 04
00:32:45.672 : :Chapter 05
00:42:28.838 : :Chapter 06
00:51:13.696 : :Chapter 07
00:59:30.275 : :Chapter 08
01:05:55.451 : :Chapter 09
01:14:59.078 : :Chapter 10
01:24:05.332 : :Chapter 11
01:33:50.750 : :Chapter 12
01:39:24.041 : :Chapter 13
01:47:28.067 : :Chapter 14
Релиз от:
Автор релиза:
pb.wtf



Скачать Злое через торрент https://i115.fastpic.org/big/2021/0912/92/8cd15323ae5f2d809731caa1c25b2592.jpg Скачать, смотреть онлайн Злое бесплантно в хорошем качестве Описание: Жизнь Мэдисон превращается в настоящий кошмар, когда в своих снах она становится свидетельницей зверских убийств. Но что, если ... 10 10 3
Торрент: Зарегистрирован [2021-11-19 21:09] · скачан: 6 раз
Статус: √ проверено
Размер: 2.06 GB
Как cкачать? Как скачать Злое через торрент | UTorrent

28-11-2019 20:33  

Отключить всю рекламу на сайте

    Дорогой пользователь! Огромная просьба, поблагодарите релизера, оцените раздачу и оставьте свои комментарий, если Вы скачали Злое через торрент бесплатно!
    Комментировать посты могут только пользователи прошедшие не сложную регистрацию
    Показать сообщения:    

    Злое через торрент
    Скачать бесплатно Злое
    Злое скачать торрент
    Злое смотреть онлайн
    Cкачать фильм Злое бесплатно
    Злое скачать торрент в хорошем качестве
    Злое смотреть онлайн бесплатно в хорошем качестве


    Вы не можете начинать темы
    Вы не можете отвечать на сообщения
    Вы не можете редактировать свои сообщения
    Вы не можете удалять свои сообщения
    Вы не можете голосовать в опросах
    Вы не можете прикреплять файлы к сообщениям
    Вы можете скачивать файлы