Anonymous, добрый вечер, присоединяйтесь к нам в Telegram!, здесь всегда актуальный адрес сайта, оперативная поддержка и многое другое!

>

5.5

iTunes

7.4

iTunes

7.9

iTunes

1

7.7

1 сезон

6.8

iTunes

7.3

1 сезон

13

6.7

1 сезон

8.3

RePack

30

ULTIMATE

pack

9.9

Лицензия

ВАЖНО

ИГРА 18+

pack

7.3

RePack

MK11

7.7

RePack

jed

7.8

RePack

fifa19

8.5

RePack

RDR2

RePack

NEED FOR SPEED™ PAYBACK

4 сезон

9 сезон

Бесстыжие 9 сезон

Все сериалы

все сериалы на PB.wtf

RePack

FAR CRY 5

Anonymous, добрый вечер, мы катастрофически не успеваем собрать деньги на оплату серверов, помогите нам пожалуйста 5,10,15р., для нас важна любая помощь . В качестве благодарности мы отключим Вам всю рекламу на сайте (укажите свой ник в строку Ваше имя)!

×
  
Magnet ссылка

Брат: Дилогия (Алексей Балабанов) [1997-2000, боевик, драма, криминал, музыка, WEB-DLRip - HEVC 1080p 10 bit 60 FPS] pb.wtf

Брат: Дилогия через торрент pb.wtf

Раздают: 3 [ 0 KB/s ]
Размер: 8.44 GB | Добавлен: 1 мес. 11 д. назад | Торрент скачан:25 раз
Смотреть онлайн Брат: Дилогия | Скачать    Ребята, помогите собрать деньги на оплату серверов!!!

12-09-2021 08:25 Брат: Дилогия Скачать торрент  



Брат — дилогия культовых криминальных фильмов о девяностых от режиссёра Балабанова, разошедшаяся на цитаты, как ни один другой фильм, выпущенный на постсоветском пространстве после 1991 года. Состоит из двух фильмов: «Брат» и «Брат-2». Первый фильм представляет собой мрачное и крутое изображение махровых 1990-х на фоне Санкт-Петербурга; второй более комедиен и гламурен, про Москву и Америку, и мало что потерял бы, если перенести действие в 2000-е.

Брат


Год выпуска: 1997
Страна: Россия
Жанр: драма, криминал, боевик

Продолжительность: 01:35:23
Перевод: Не требуется |
Субтитры: русские |

Режиссер: Алекcей Балабанoв
В ролях: Сергей Бодров мл., Виктор Сухоруков, Светлана Письмиченко, Мария Милютина, Юрий Кузнецов, Сергей Мурзин, Ирина Ракшина, Анатолий Журавлев, Андрей Федорцов, Андрей Краско

Описание:
Демобилизовавшись, Данила Багров вернулся в родной городок. Но скучная жизнь российской провинции не устраивала его, и он решился податься в Петербург, где, по слухам, уже несколько лет процветает его старший брат. Данила нашел брата. Но все оказалось не так просто — брат работает наемным убийцей.

Мировая премьера: 17 мая 1997


Качество: WEB-DLRip 1080p Rip by DD2D3
Формат: MKV
Видео: V_MPEGH/ISO/HEVC; 1920x1080 (16:9); 5001 Kbps; 60 fps; 0,040 bpp
Аудио: русский; AC3+; 640 Kbps; CBR; 6 ch ||
Навигация по главам: нет



Общее
Уникальный идентификатор : 191792287010026812972263770042762463923 (0x9049D9D2527C1263BA6BDB33B26F0AB3)
Полное имя : E:\Фильмы (Подготовка)\Брат (1997) WEB-DLRip - HEVC 1080p 10 bit 60 FPS.mkv
Формат : Matroska
Версия формата : Version 4
Размер файла : 3,76 Гбайт
Продолжительность : 1 ч. 35 м.
Общий поток : 5 648 Кбит/сек
Название фильма : Rip by from DD2D3
Дата кодирования : UTC 2021-09-12 06:37:19
Программа кодирования : mkvmerge v10.0.0 ('To Drown In You') 32bit
Библиотека кодирования : libebml v1.3.4 + libmatroska v1.4.5
Attachments : poster

Видео
Идентификатор : 1
Формат : HEVC
Формат/Информация : High Efficiency Video Coding
Профиль формата : Main 10@L4.1@Main
Идентификатор кодека : V_MPEGH/ISO/HEVC
Продолжительность : 1 ч. 35 м.
Битрейт : 5 002 Кбит/сек
Ширина : 1 920 пикселей
Высота : 1 080 пикселей
Соотношение сторон : 16:9
Режим частоты кадров : Постоянный
Частота кадров : 60,000 кадров/сек
Цветовое пространство : YUV
Субдискретизация насыщенности : 4:2:0
Битовая глубина : 10 бит
Бит/(Пиксели*Кадры) : 0.040
Размер потока : 3,33 Гбайт (89%)
Библиотека кодирования : x265 3.5+10-82786fccc:[Windows][GCC 11.1.0][64 bit] 10bit
Настройки программы : cpuid=1111039 / frame-threads=2 / numa-pools=4 / wpp / no-pmode / pme / no-psnr / no-ssim / log-level=2 / input-csp=1 / input-res=1920x1080 / interlace=0 / total-frames=343364 / level-idc=41 / high-tier=1 / uhd-bd=0 / ref=3 / no-allow-non-conformance / no-repeat-headers / annexb / no-aud / no-eob / no-eos / no-hrd / info / hash=0 / no-temporal-layers / open-gop / min-keyint=25 / keyint=250 / gop-lookahead=0 / bframes=4 / b-adapt=2 / b-pyramid / bframe-bias=0 / rc-lookahead=20 / lookahead-slices=6 / scenecut=40 / hist-scenecut=0 / radl=0 / no-splice / no-intra-refresh / ctu=64 / min-cu-size=8 / no-rect / no-amp / max-tu-size=32 / tu-inter-depth=1 / tu-intra-depth=1 / limit-tu=0 / rdoq-level=0 / dynamic-rd=0.00 / no-ssim-rd / signhide / no-tskip / nr-intra=0 / nr-inter=0 / no-constrained-intra / strong-intra-smoothing / max-merge=3 / limit-refs=1 / no-limit-modes / me=1 / subme=2 / merange=57 / temporal-mvp / no-frame-dup / no-hme / weightp / no-weightb / no-analyze-src-pics / deblock=0:0 / sao / no-sao-non-deblock / rd=3 / selective-sao=4 / early-skip / rskip / no-fast-intra / no-tskip-fast / no-cu-lossless / b-intra / no-splitrd-skip / rdpenalty=0 / psy-rd=2.00 / psy-rdoq=0.00 / no-rd-refine / no-lossless / cbqpoffs=0 / crqpoffs=0 / rc=abr / bitrate=5000 / qcomp=0.60 / qpstep=4 / stats-write=0 / stats-read=2 / cplxblur=20.0 / qblur=0.5 / ipratio=1.40 / pbratio=1.30 / aq-mode=2 / aq-strength=1.00 / cutree / zone-count=0 / no-strict-cbr / qg-size=32 / no-rc-grain / qpmax=69 / qpmin=0 / no-const-vbv / sar=1 / overscan=0 / videoformat=5 / range=0 / colorprim=2 / transfer=2 / colormatrix=2 / chromaloc=0 / display-window=0 / cll=0,0 / min-luma=0 / max-luma=1023 / log2-max-poc-lsb=8 / vui-timing-info / vui-hrd-info / slices=1 / no-opt-qp-pps / no-opt-ref-list-length-pps / no-multi-pass-opt-rps / scenecut-bias=0.05 / hist-threshold=0.03 / no-opt-cu-delta-qp / no-aq-motion / no-hdr10 / no-hdr10-opt / no-dhdr10-opt / no-idr-recovery-sei / analysis-reuse-level=0 / analysis-save-reuse-level=0 / analysis-load-reuse-level=0 / scale-factor=0 / refine-intra=0 / refine-inter=0 / refine-mv=1 / refine-ctu-distortion=0 / no-limit-sao / ctu-info=0 / no-lowpass-dct / refine-analysis-type=0 / copy-pic=1 / max-ausize-factor=1.0 / no-dynamic-refine / no-single-sei / no-hevc-aq / no-svt / no-field / qp-adaptation-range=1.00 / scenecut-aware-qp=0conformance-window-offsets / right=0 / bottom=0 / decoder-max-rate=0 / no-vbv-live-multi-pass
Default : Да
Forced : Нет

Аудио
Идентификатор : 2
Формат : E-AC-3
Формат/Информация : Enhanced AC-3
Коммерческое название : Dolby Digital Plus
Идентификатор кодека : A_EAC3
Продолжительность : 1 ч. 35 м.
Вид битрейта : Постоянный
Битрейт : 640 Кбит/сек
Каналы : 6 каналов
Channel layout : L R C LFE Ls Rs
Частота : 48,0 КГц
Частота кадров : 31,250 кадров/сек (1536 SPF)
Метод сжатия : С потерями
Размер потока : 437 Мбайт (11%)
Заголовок : Russian
Язык : Russian
Service kind : Complete Main
Default : Да
Forced : Нет

Текст
Идентификатор : 3
Формат : UTF-8
Идентификатор кодека : S_TEXT/UTF8
Идентификатор кодека/Информация : UTF-8 Plain Text
Продолжительность : 1 ч. 34 м.
Битрейт : 65 бит/сек
Count of elements : 868
Размер потока : 45,3 Кбайт (0%)
Заголовок : SDH
Язык : Russian
Default : Нет
Forced : Нет
скриншот  скриншот  скриншот  скриншот  


© Оформление by DD2D3


Брат 2
«Данила возвращается!»


Год выпуска: 2000
Страна: Россия
Жанр: драма, криминал, боевик

Продолжительность: 02:02:40
Перевод: Не требуется |
Субтитры: нет |

Режиссер: Алекcей Балабанoв
В ролях: Сергей Бодров мл., Виктор Сухоруков, Сергей Маковецкий, Ирина Салтыкова, Кирилл Пирогов, Александр Дьяченко, Дарья Юргенс, Александр Наумов, Александр Карамнов, Гэри Хьюстон

Описание:
Участвуя в программе на телевидении, Данила Багров встречает своих друзей по службе Чечне. Одного из них внезапно убивают. Выясняется, что у того были неприятности из-за брата-хоккеиста в Америке. Данила должен разобраться. Он вылетает в Америку и за компанию берёт с собой старшего брата.

Мировая премьера: 30 августа 2000


Качество: WEB-DLRip 1080p Rip by DD2D3
Формат: MKV
Видео: V_MPEGH/ISO/HEVC; 1920x1080 (16:9); 5000 Kbps; 60 fps; 0,040 bpp
Аудио: русский; AC3; 448 Kbps; CBR; 6 ch ||
Навигация по главам: нет



Общее
Уникальный идентификатор : 187464680772273150561364061640439108820 (0x8D08625C55F2B19F883F03E2A79C14D4)
Полное имя : E:\Фильмы (Подготовка)\Брат 2 (2000) WEB-DLRip - HEVC 1080p 10 bit 60 FPS.mkv
Формат : Matroska
Версия формата : Version 4
Размер файла : 4,67 Гбайт
Продолжительность : 2 ч. 2 м.
Общий поток : 5 454 Кбит/сек
Название фильма : Rip by from DD2D3
Дата кодирования : UTC 2021-09-12 08:09:53
Программа кодирования : mkvmerge v10.0.0 ('To Drown In You') 32bit
Библиотека кодирования : libebml v1.3.4 + libmatroska v1.4.5
Attachments : poster

Видео
Идентификатор : 1
Формат : HEVC
Формат/Информация : High Efficiency Video Coding
Профиль формата : Main 10@L4.1@Main
Идентификатор кодека : V_MPEGH/ISO/HEVC
Продолжительность : 2 ч. 2 м.
Битрейт : 5 000 Кбит/сек
Ширина : 1 920 пикселей
Высота : 1 080 пикселей
Соотношение сторон : 16:9
Режим частоты кадров : Постоянный
Частота кадров : 60,000 кадров/сек
Цветовое пространство : YUV
Субдискретизация насыщенности : 4:2:0
Битовая глубина : 10 бит
Бит/(Пиксели*Кадры) : 0.040
Размер потока : 4,28 Гбайт (92%)
Библиотека кодирования : x265 3.5+10-82786fccc:[Windows][GCC 11.1.0][64 bit] 10bit
Настройки программы : cpuid=1111039 / frame-threads=2 / numa-pools=4 / wpp / no-pmode / pme / no-psnr / no-ssim / log-level=2 / input-csp=1 / input-res=1920x1080 / interlace=0 / total-frames=441605 / level-idc=41 / high-tier=1 / uhd-bd=0 / ref=3 / no-allow-non-conformance / no-repeat-headers / annexb / no-aud / no-eob / no-eos / no-hrd / info / hash=0 / no-temporal-layers / open-gop / min-keyint=25 / keyint=250 / gop-lookahead=0 / bframes=4 / b-adapt=2 / b-pyramid / bframe-bias=0 / rc-lookahead=20 / lookahead-slices=6 / scenecut=40 / hist-scenecut=0 / radl=0 / no-splice / no-intra-refresh / ctu=64 / min-cu-size=8 / no-rect / no-amp / max-tu-size=32 / tu-inter-depth=1 / tu-intra-depth=1 / limit-tu=0 / rdoq-level=0 / dynamic-rd=0.00 / no-ssim-rd / signhide / no-tskip / nr-intra=0 / nr-inter=0 / no-constrained-intra / strong-intra-smoothing / max-merge=3 / limit-refs=1 / no-limit-modes / me=1 / subme=2 / merange=57 / temporal-mvp / no-frame-dup / no-hme / weightp / no-weightb / no-analyze-src-pics / deblock=0:0 / sao / no-sao-non-deblock / rd=3 / selective-sao=4 / early-skip / rskip / no-fast-intra / no-tskip-fast / no-cu-lossless / b-intra / no-splitrd-skip / rdpenalty=0 / psy-rd=2.00 / psy-rdoq=0.00 / no-rd-refine / no-lossless / cbqpoffs=0 / crqpoffs=0 / rc=abr / bitrate=5000 / qcomp=0.60 / qpstep=4 / stats-write=0 / stats-read=2 / cplxblur=20.0 / qblur=0.5 / ipratio=1.40 / pbratio=1.30 / aq-mode=2 / aq-strength=1.00 / cutree / zone-count=0 / no-strict-cbr / qg-size=32 / no-rc-grain / qpmax=69 / qpmin=0 / no-const-vbv / sar=1 / overscan=0 / videoformat=5 / range=0 / colorprim=2 / transfer=2 / colormatrix=2 / chromaloc=0 / display-window=0 / cll=0,0 / min-luma=0 / max-luma=1023 / log2-max-poc-lsb=8 / vui-timing-info / vui-hrd-info / slices=1 / no-opt-qp-pps / no-opt-ref-list-length-pps / no-multi-pass-opt-rps / scenecut-bias=0.05 / hist-threshold=0.03 / no-opt-cu-delta-qp / no-aq-motion / no-hdr10 / no-hdr10-opt / no-dhdr10-opt / no-idr-recovery-sei / analysis-reuse-level=0 / analysis-save-reuse-level=0 / analysis-load-reuse-level=0 / scale-factor=0 / refine-intra=0 / refine-inter=0 / refine-mv=1 / refine-ctu-distortion=0 / no-limit-sao / ctu-info=0 / no-lowpass-dct / refine-analysis-type=0 / copy-pic=1 / max-ausize-factor=1.0 / no-dynamic-refine / no-single-sei / no-hevc-aq / no-svt / no-field / qp-adaptation-range=1.00 / scenecut-aware-qp=0conformance-window-offsets / right=0 / bottom=0 / decoder-max-rate=0 / no-vbv-live-multi-pass
Default : Да
Forced : Нет

Аудио
Идентификатор : 2
Формат : AC-3
Формат/Информация : Audio Coding 3
Коммерческое название : Dolby Digital
Идентификатор кодека : A_AC3
Продолжительность : 2 ч. 2 м.
Вид битрейта : Постоянный
Битрейт : 448 Кбит/сек
Каналы : 6 каналов
Channel layout : L R C LFE Ls Rs
Частота : 48,0 КГц
Частота кадров : 31,250 кадров/сек (1536 SPF)
Метод сжатия : С потерями
Размер потока : 393 Мбайт (8%)
Заголовок : DVD R5 + AVO (Е. Гаевский)
Язык : Russian
Service kind : Complete Main
Default : Да
Forced : Нет
скриншот  скриншот  скриншот  скриншот  


© Оформление by DD2D3
pb.wtf



Скачать Брат: Дилогия через торрент http://images.vfl.ru/ii/1631432961/182c53b4/35831868.jpg Скачать, смотреть онлайн Брат: Дилогия бесплантно в хорошем качестве Описание: Демобилизовавшись, Данила Багров вернулся в родной городок. Но скучная жизнь российской провинции не устраивала его, и он решился ... 9.2 10 12
Торрент: Зарегистрирован [2021-09-12 08:25] · скачан: 25 раз
Статус: √ проверено
Размер: 8.44 GB
Как cкачать? Как скачать Брат: Дилогия через торрент | UTorrent

% Раздел Тема Автор DL S | L
Сборники на DVD и Сиквелы [DVDrip, WEB-DLRip, HDrip, BDRip] [ 2.92 GB ] Брат / Брат 2 [Дилогия] [1997-2000 WEB-DLRip] Оригинал [] Twi7ter Скачать
1 | 1
Наши фильмы (HD, WEB-DL 720p, 1080p) [ 13.64 GB ] Брат: Дилогия [1997-2000 музыка WEB-DLRip 720p от KORSAR] filbi1976 Скачать
3 | 0
Сборники на DVD и Сиквелы [DVDrip, WEB-DLRip, HDrip, BDRip] [ 4.13 GB ] Брат / Брат 2 [Дилогия] [1997-2000 DVDRip-AVC] Ворон Скачать
1 | 0
Зарубежные Мультфильмы (WEB-DL 720p, 1080p) [ 3.31 GB ] Братец медвежонок: Дилогия / Brother Bear: Dilogy [2003 2006 мультфильм HDTVRip 720p] ACFIORENTINA Скачать
1 | 0

28-11-2019 20:33  

Отключить всю рекламу на сайте

    Дорогой пользователь! Огромная просьба, поблагодарите релизера, оцените раздачу и оставьте свои комментарий, если Вы скачали Брат: Дилогия через торрент бесплатно!
    Комментировать посты могут только пользователи прошедшие не сложную регистрацию
    Показать сообщения:    

    Брат: Дилогия через торрент
    Скачать бесплатно Брат: Дилогия
    Брат: Дилогия скачать торрент
    Брат: Дилогия смотреть онлайн
    Cкачать фильм Брат: Дилогия бесплатно
    Брат: Дилогия скачать торрент в хорошем качестве
    Брат: Дилогия смотреть онлайн бесплатно в хорошем качестве


    Вы не можете начинать темы
    Вы не можете отвечать на сообщения
    Вы не можете редактировать свои сообщения
    Вы не можете удалять свои сообщения
    Вы не можете голосовать в опросах
    Вы не можете прикреплять файлы к сообщениям
    Вы можете скачивать файлы