Присоединяйтесь к нам в Telegram!, здесь всегда актуальный адрес сайта, оперативная поддержка и многое другое!!

>

5.9

iTunes

7.4

iTunes

9.4

1 сезон

1

7.4

2 сезон

7.2

iTunes

7.3

1 сезон

13

6.1

iTunes

8.3

GOG

30

ULTIMATE

pack

9.9

Лицензия

ВАЖНО

ИГРА 18+

pack

7.3

RePack

MK11

7.7

RePack

jed

7.8

RePack

fifa19

8.5

RePack

RDR2

RePack

NEED FOR SPEED™ PAYBACK

5 сезон

9 сезон

Бесстыжие 9 сезон

Все сериалы

все сериалы на PB.wtf

RePack

FAR CRY 5

Anonymous, добрый вечер, мы катастрофически не успеваем собрать деньги на оплату серверов, помогите нам пожалуйста 5,10,15р., для нас важна любая помощь . В качестве благодарности мы отключим Вам всю рекламу на сайте (укажите свой ник в строку Ваше имя)!

×
  
Magnet ссылка

Американская история ужасов / American Horror Story / Сезон: 10 / Серии: 1-10 из 10 (Лони Перистер, Мэнни Кото, Эдуардо Санчес) [2021, ужасы, триллер, драма, WEB-DLRip-AVC] MVO [LostFilm] от MediaBit pb.wtf

Американская история ужасов через торрент pb.wtf

Раздают: 1 [ 7 KB/s ]
Размер: 8.41 GB | Добавлен: 1 мес. 9 д. назад | Торрент скачан:41 раз
Смотреть онлайн Американская история ужасов | Скачать    Ребята, помогите собрать деньги на оплату серверов!!!

12-09-2021 10:04 Американская история ужасов Скачать торрент  


Американская история ужасов / American Horror Story
Информация о фильме:
Название: Американская история ужасов
Оригинальное название: American Horror Story
Год выхода: 2021
Жанр: ужасы, триллер, драма
Режиссер: Джон Дж. Грэй

В ролях: Фрэнсис Конрой, Финн Уиттрок, Лили Рэйб, Анджелика Росс, Райан Кира Армстронг, Билли Лурд, Маколей Калкин, Адина Портер, Лесли Гроссман, Эван Питерс, Сара Полсон, Джон Лэси и другие

Описание: «Американская история ужасов» — это телевизионная хоррор-антология от именитых американских продюсеров Брэда Фалчака и Райана Мерфи. Действие каждого ее сезона разворачивается в новом месте, представляя зрителям отдельную самостоятельную историю с целой галереей внушающих ужас и отвращение персонажей. В сериале, являющем собой гремучую смесь всех наших детских страхов и ночных кошмаров, а также отсылок к культовым ужастикам, можно встретить не только хладнокровных серийных маньяков, но и любителей раскапывать могилы, нимфоманок, сиамских близнецов, верховную жрицу луизианского культа вуду, экспериментирующих над своими пациентами врачей и даже человека-лобстера. Многие герои имеют реальных прототипов, что делает события «Американской истории ужасов» еще более впечатляющими и выводящими из равновесия. Уникальный формат шоу и его успех у зрителей позволяют создателям привлекать к съемкам звезд первой величины, таких как Джессика Лэнг и Леди Гага. Многие из сотрудничающих с Мерфи актеров с охотой соглашаются на новые роли в последующих сезонах. За время своей трансляции на канале FX шоу стабильно удерживало высокие рейтинги, удостоилось множества престижных наград и номинаций.
Сюжет десятого сезона «Двойной сеанс» (Double Feature): Телевизионный сценарист Гарри Гарднер (Финн Уиттрок) на несколько зимних месяцев приезжает с беременной женой Дорис (Лили Рэйб) и дочкой Альмой (Райан Кира Армстронг) в захолустный Провинстаун. Здесь он надеется найти утерянное вдохновение и написать хоть несколько страниц для нового сериала. По приезде выясняется, что ему придется иметь дело не только с творческим кризисом, но и с весьма криповыми обитателями городка. В супермаркете на него нападает местная сумасшедшая Туберкулезная Карен (Сара Полсон) с пронзительными воплями из разряда «Бегите, глупцы!». А ночью дом атакуют жуткие бледные люди, повадками напоминающие монстров, готовых растерзать свою добычу. От немедленного отъезда Гарри отговаривают новые знакомые — успешные авторы Остин Саммерс (Эван Питерс) и Бэлль Нуар (Фрэнсис Конрой). Когда-то они, как и Гарднер, страдали от писательского ступора, но после нескольких зим в Провинстауне стали выдавать тексты столь желанные в Голливуде, что мигом озолотились. В качестве приманки Остин дает Гарри пилюлю, якобы способную раскрыть его потенциал. Вот только новый приятель умалчивает, какие последствия внезапно открывшегося гения его ждут и кем были те самые бледные люди в прошлой жизни…



Страна: США
Студия: 20th Century Fox Television, Brad Falchuk Teley-Vision, Ryan Murphy Productions
Продолжительность: ~ 00:45:00 серия
Перевод: Профессиональный (многоголосый, закадровый) - LostFilm



Информация о файле:
Кодек: AVC
Формат: MKV
Качество: WEB-DLRip-AVC
Видео: MPEG-4 AVC, 1024x512, 23.976 fps, ~ 1800 kbps
Аудио RU: AC3, 6 ch, 48 kHz, 384 kbps
Аудио EN: AC3, 6 ch, 48 kHz, 448 kbps
Субтитры: Русские (Forced), английские (Full, SDH)

x264 info: frame I:689 Avg QP:12.77 size: 80906
x264 info: frame P:15646 Avg QP:16.27 size: 21534
x264 info: frame B:56288 Avg QP:19.12 size: 5131
General
Unique ID : 220499444852905135966502399797734416613 (0xA5E2A5FAADA49D9ADAEFF67D99E820E5)
Complete name : D:uTorrentAmerican.Horror.Story.2021.S10.Wolf1245.MediaBitAmerican.Horror.Story.2021.MVO.LostFilm.WEB-DLRip-AVC.[-=wolf1245.MediaBit=-]S10.E01.mkv
Format : Matroska
Format version : Version 4
File size : 951 MiB
Duration : 50 min 29 s
Overall bit rate : 2 634 kb/s
Movie name : American.Horror.Story.2021.MVO.LostFilm.WEB-DLRip-AVC.[-=wolf1245.MediaBit=-]S10.E01
Encoded date : UTC 2021-09-12 09:39:59
Writing application : mkvmerge v61.0.0 ('So') 64-bit
Writing library : libebml v1.4.2 + libmatroska v1.6.4
Video
ID : 1
Format : AVC
Format/Info : Advanced Video Codec
Format profile : High@L4.1
Format settings : CABAC / 14 Ref Frames
Format settings, CABAC : Yes
Format settings, Reference frames : 14 frames
Codec ID : V_MPEG4/ISO/AVC
Duration : 50 min 28 s
Bit rate : 1 800 kb/s
Width : 1 024 pixels
Height : 512 pixels
Display aspect ratio : 2.000
Frame rate mode : Constant
Frame rate : 23.976 (24000/1001) FPS
Color space : YUV
Chroma subsampling : 4:2:0
Bit depth : 8 bits
Scan type : Progressive
Bits/(Pixel*Frame) : 0.143
Stream size : 650 MiB (68%)
Title : -=[wolf1245.MediaBit]=-
Writing library : x264 core 161 r3020 d198931
Encoding settings : cabac=1 / ref=14 / deblock=1:-2:-2 / analyse=0x3:0x133 / me=umh / subme=10 / psy=1 / psy_rd=0.98:0.05 / mixed_ref=1 / me_range=32 / chroma_me=1 / trellis=2 / 8x8dct=1 / cqm=0 / deadzone=21,11 / fast_pskip=1 / chroma_qp_offset=-3 / threads=10 / lookahead_threads=2 / sliced_threads=0 / nr=0 / decimate=1 / interlaced=0 / bluray_compat=0 / constrained_intra=0 / bframes=12 / b_pyramid=2 / b_adapt=2 / b_bias=0 / direct=3 / weightb=1 / open_gop=0 / weightp=2 / keyint=240 / keyint_min=24 / scenecut=40 / intra_refresh=0 / rc_lookahead=60 / rc=2pass / mbtree=1 / bitrate=1800 / ratetol=1.0 / qcomp=0.60 / qpmin=0 / qpmax=69 / qpstep=4 / cplxblur=20.0 / qblur=0.5 / vbv_maxrate=50000 / vbv_bufsize=62500 / nal_hrd=none / filler=0 / ip_ratio=1.40 / aq=3:0.80
Language : English
Default : Yes
Forced : No
Color range : Limited
Color primaries : BT.709
Transfer characteristics : BT.709
Matrix coefficients : BT.709
Audio #1
ID : 2
Format : AC-3
Format/Info : Audio Coding 3
Commercial name : Dolby Digital
Codec ID : A_AC3
Duration : 50 min 29 s
Bit rate mode : Constant
Bit rate : 384 kb/s
Channel(s) : 2 channels
Channel layout : L R
Sampling rate : 48.0 kHz
Frame rate : 31.250 FPS (1536 SPF)
Compression mode : Lossy
Stream size : 139 MiB (15%)
Title : LostFilm | MVO
Language : Russian
Service kind : Complete Main
Default : Yes
Forced : No
Audio #2
ID : 3
Format : AC-3
Format/Info : Audio Coding 3
Commercial name : Dolby Digital
Codec ID : A_AC3
Duration : 50 min 29 s
Bit rate mode : Constant
Bit rate : 448 kb/s
Channel(s) : 6 channels
Channel layout : L R C LFE Ls Rs
Sampling rate : 48.0 kHz
Frame rate : 31.250 FPS (1536 SPF)
Compression mode : Lossy
Stream size : 162 MiB (17%)
Title : Original
Language : English
Service kind : Complete Main
Default : No
Forced : No
Text #1
ID : 4
Format : UTF-8
Codec ID : S_TEXT/UTF8
Codec ID/Info : UTF-8 Plain Text
Duration : 1 min 51 s
Bit rate : 76 b/s
Count of elements : 19
Stream size : 1.04 KiB (0%)
Title : Forced |LF|
Language : Russian
Default : Yes
Forced : No
Text #2
ID : 5
Format : UTF-8
Codec ID : S_TEXT/UTF8
Codec ID/Info : UTF-8 Plain Text
Duration : 49 min 37 s
Bit rate : 61 b/s
Count of elements : 863
Stream size : 22.2 KiB (0%)
Title : Full
Language : English
Default : No
Forced : No
Text #3
ID : 6
Format : UTF-8
Codec ID : S_TEXT/UTF8
Codec ID/Info : UTF-8 Plain Text
Duration : 49 min 40 s
Bit rate : 71 b/s
Count of elements : 1048
Stream size : 25.9 KiB (0%)
Title : SDH
Language : English
Default : No
Forced : No
Menu
00:00:00.000 : :Studio Logo
00:00:03.978 : :Scene 3
00:02:26.978 : :Opening Credits
00:03:33.978 : :Scene 5
00:09:48.978 : :Scene 6
00:16:49.978 : :Scene 7
00:21:03.978 : :Scene 8
00:28:48.978 : :Scene 9
00:35:05.978 : :Scene 10
00:42:36.978 : :Scene 11
00:49:48.978 : :End Credits
Релиз от: &
Автор релиза:
pb.wtf



Скачать Американская история ужасов через торрент https://i115.fastpic.org/big/2021/0912/1e/26c060dc35747ceb43dc05b107ea6b1e.jpg Скачать, смотреть онлайн Американская история ужасов бесплантно в хорошем качестве Описание: «Американская история ужасов» — это телевизионная хоррор-антология от именитых американских продюсеров Брэда Фалчака и Райана ... 10 10 8
Торрент: Зарегистрирован [2021-10-24 11:02] · скачан: 41 раз
Статус: √ проверено
Размер: 8.41 GB
Как cкачать? Как скачать Американская история ужасов через торрент | UTorrent

28-11-2019 20:33  

Отключить всю рекламу на сайте

26-10-2021 11:47 Американская история ужасов Скачать торрент  

Спасибо за раздачу!!! pb.wtf



    Дорогой пользователь! Огромная просьба, поблагодарите релизера, оцените раздачу и оставьте свои комментарий, если Вы скачали Американская история ужасов через торрент бесплатно!
    Комментировать посты могут только пользователи прошедшие не сложную регистрацию
    Показать сообщения:    

    Американская история ужасов через торрент
    Скачать бесплатно Американская история ужасов
    Американская история ужасов скачать торрент
    Американская история ужасов смотреть онлайн
    Cкачать фильм Американская история ужасов бесплатно
    Американская история ужасов скачать торрент в хорошем качестве
    Американская история ужасов смотреть онлайн бесплатно в хорошем качестве


    Вы не можете начинать темы
    Вы не можете отвечать на сообщения
    Вы не можете редактировать свои сообщения
    Вы не можете удалять свои сообщения
    Вы не можете голосовать в опросах
    Вы не можете прикреплять файлы к сообщениям
    Вы можете скачивать файлы