Присоединяйтесь к нам в Telegram!, здесь всегда актуальный адрес сайта, оперативная поддержка и многое другое!!

>

5.9

iTunes

7.4

iTunes

9.4

1 сезон

1

7.4

2 сезон

7.2

iTunes

7.3

1 сезон

13

6.1

iTunes

8.3

Пиратка

30

ULTIMATE

pack

9.9

Лицензия

ВАЖНО

ИГРА 18+

pack

7.3

RePack

MK11

7.7

RePack

jed

7.8

RePack

fifa19

8.5

RePack

RDR2

RePack

NEED FOR SPEED™ PAYBACK

5 сезон

9 сезон

Бесстыжие 9 сезон

Все сериалы

все сериалы на PB.wtf

RePack

FAR CRY 5

Anonymous, доброй ночи, мы катастрофически не успеваем собрать деньги на оплату серверов, помогите нам пожалуйста 5,10,15р., для нас важна любая помощь . В качестве благодарности мы отключим Вам всю рекламу на сайте (укажите свой ник в строку Ваше имя)!

×
  
Magnet ссылка

Ночная рыбалка / Naktinė žvejyba (Тадас Видмантас) [2021, Комедия, WEB-DLRip-AVC] MVO [SDI Media] от MediaBit pb.wtf

Ночная рыбалка через торрент pb.wtf

Размер: 1.45 GB | Добавлен: 2 мес. 22 д. назад | Торрент скачан:53 раза
Смотреть онлайн Ночная рыбалка | Скачать    Ребята, помогите собрать деньги на оплату серверов!!!

13-09-2021 14:00 Ночная рыбалка Скачать торрент  


Ночная рыбалка / Naktinė žvejyba
Информация о фильме:
Название: Ночная рыбалка
Оригинальное название: Naktinė žvejyba
Год выхода: 2021
Жанр: Комедия
Режиссер: Тадас Видмантас

В ролях: Марюс Репшис, Леонардас Победоносцевас, Инета Стасюлите

Описание: Соседи Юстас и Повилас собрались на рыбалку. Встретившись на отдалённом острове на озере, они болтают о делах, о женщинах, но вскоре разговор принимает неожиданный поворот, который раскрывает не только интригующие детали жизни мужчин, но и вопроос жизни и смерти...



Страна: Литва
Студия: Stambus planas
Продолжительность: 01:13:24
Перевод: Профессиональный (одноголосый, закадровый) - SDI Media



Информация о файле:
Кодек: AVC
Формат: MKV
Качество: WEB-DLRip-AVC
Видео: MPEG-4 AVC, 1024x428, 25.000 fps, 2452 kb/s
Аудио RU: AC3, 2 ch, 48 kHz, 192 kbps
Аудио LTU: AC3, 2 ch, 48 kHz, 192 kbps

General
Unique ID : 263499048131656666599708919107083566197 (0xC63C121A24EB7BE58470633F1F6FFC75)
Complete name : D:uTorrentРипы wolf1245Naktinė žvejyba.2021.DVO.WEB-DLRip-AVC.[-=wolf1245.MediaBit=-].mkv
Format : Matroska
Format version : Version 4
File size : 1.45 GiB
Duration : 1 h 13 min
Overall bit rate : 2 837 kb/s
Movie name : Naktinė žvejyba.2021.DVO.WEB-DLRip-AVC.[-=wolf1245.MediaBit=-]
Encoded date : UTC 2021-09-12 16:55:06
Writing application : mkvmerge v61.0.0 ('So') 64-bit
Writing library : libebml v1.4.2 + libmatroska v1.6.4
Video
ID : 1
Format : AVC
Format/Info : Advanced Video Codec
Format profile : High@L4.1
Format settings : CABAC / 14 Ref Frames
Format settings, CABAC : Yes
Format settings, Reference frames : 14 frames
Codec ID : V_MPEG4/ISO/AVC
Duration : 1 h 13 min
Bit rate : 2 452 kb/s
Width : 1 024 pixels
Height : 428 pixels
Display aspect ratio : 2.40:1
Frame rate mode : Constant
Frame rate : 25.000 FPS
Color space : YUV
Chroma subsampling : 4:2:0
Bit depth : 8 bits
Scan type : Progressive
Bits/(Pixel*Frame) : 0.224
Stream size : 1.25 GiB (86%)
Title : [-=wolf1245.MediaBit=-]
Writing library : x264 core 161 r3020 d198931
Encoding settings : cabac=1 / ref=14 / deblock=1:-2:-2 / analyse=0x3:0x133 / me=umh / subme=10 / psy=1 / psy_rd=0.98:0.07 / mixed_ref=1 / me_range=32 / chroma_me=1 / trellis=2 / 8x8dct=1 / cqm=0 / deadzone=21,11 / fast_pskip=1 / chroma_qp_offset=-3 / threads=10 / lookahead_threads=2 / sliced_threads=0 / nr=0 / decimate=1 / interlaced=0 / bluray_compat=0 / constrained_intra=0 / bframes=12 / b_pyramid=2 / b_adapt=2 / b_bias=0 / direct=3 / weightb=1 / open_gop=0 / weightp=2 / keyint=250 / keyint_min=25 / scenecut=40 / intra_refresh=0 / rc_lookahead=60 / rc=2pass / mbtree=1 / bitrate=2452 / ratetol=1.0 / qcomp=0.60 / qpmin=0 / qpmax=69 / qpstep=4 / cplxblur=20.0 / qblur=0.5 / vbv_maxrate=50000 / vbv_bufsize=62500 / nal_hrd=none / filler=0 / ip_ratio=1.40 / aq=3:0.80
Language : Lithuanian
Default : Yes
Forced : No
Audio #1
ID : 2
Format : AC-3
Format/Info : Audio Coding 3
Commercial name : Dolby Digital
Codec ID : A_AC3
Duration : 1 h 13 min
Bit rate mode : Constant
Bit rate : 192 kb/s
Channel(s) : 2 channels
Channel layout : L R
Sampling rate : 48.0 kHz
Frame rate : 31.250 FPS (1536 SPF)
Compression mode : Lossy
Stream size : 101 MiB (7%)
Title : MVO
Language : Russian
Service kind : Complete Main
Default : Yes
Forced : No
Audio #2
ID : 3
Format : AC-3
Format/Info : Audio Coding 3
Commercial name : Dolby Digital
Codec ID : A_AC3
Duration : 1 h 13 min
Bit rate mode : Constant
Bit rate : 192 kb/s
Channel(s) : 2 channels
Channel layout : L R
Sampling rate : 48.0 kHz
Frame rate : 31.250 FPS (1536 SPF)
Compression mode : Lossy
Stream size : 101 MiB (7%)
Title : Original | LT
Language : Lithuanian
Service kind : Complete Main
Default : No
Forced : No
Релиз от: &
Автор релиза:
pb.wtf



Скачать Ночная рыбалка через торрент https://b.radikal.ru/b31/2109/7d/7ed33a3adca5.png Скачать, смотреть онлайн Ночная рыбалка бесплантно в хорошем качестве Описание: Соседи Юстас и Повилас собрались на рыбалку. Встретившись на отдалённом острове на озере, они болтают о делах, о женщинах, но ... 9.5 10 4
Торрент: Зарегистрирован [2021-09-13 14:00] · скачан: 53 раз
Статус: √ проверено
Размер: 1.45 GB
Как cкачать? Как скачать Ночная рыбалка через торрент | UTorrent

28-11-2019 20:33  

Отключить всю рекламу на сайте

    Дорогой пользователь! Огромная просьба, поблагодарите релизера, оцените раздачу и оставьте свои комментарий, если Вы скачали Ночная рыбалка через торрент бесплатно!
    Комментировать посты могут только пользователи прошедшие не сложную регистрацию
    Показать сообщения:    

    Ночная рыбалка через торрент
    Скачать бесплатно Ночная рыбалка
    Ночная рыбалка скачать торрент
    Ночная рыбалка смотреть онлайн
    Cкачать фильм Ночная рыбалка бесплатно
    Ночная рыбалка скачать торрент в хорошем качестве
    Ночная рыбалка смотреть онлайн бесплатно в хорошем качестве


    Вы не можете начинать темы
    Вы не можете отвечать на сообщения
    Вы не можете редактировать свои сообщения
    Вы не можете удалять свои сообщения
    Вы не можете голосовать в опросах
    Вы не можете прикреплять файлы к сообщениям
    Вы можете скачивать файлы