>

5.6

iTunes

6.1

MVO

5.7

MVO

1

7.4

1 сезон

6.8

iTunes

7.2

1 сезон

13

6.7

1 сезон

8.3

RePack

30

Deluxe

pack

9.9

Лицензия

ВАЖНО

ИГРА 18+

pack

7.3

RePack

MK11

7.7

RePack

jed

7.8

RePack

fifa19

8.5

RePack

RDR2

RePack

NEED FOR SPEED™ PAYBACK

4 сезон

9 сезон

Бесстыжие 9 сезон

Все сериалы

все сериалы на PB.wtf

RePack

FAR CRY 5

Anonymous, доброй ночи, мы катастрофически не успеваем собрать деньги на оплату серверов, помогите нам пожалуйста 5,10,15р., для нас важна любая помощь . В качестве благодарности мы отключим Вам всю рекламу на сайте (укажите свой ник в строку Ваше имя)!

×
  
Magnet ссылка

День Друзейдарения / Friendsgiving (Николь Паон) [2020, Драма, комедия, BDRip 720p] MVO [iTunes] pb.wtf

День Друзейдарения через торрент pb.wtf

Раздают: 1 [ 0 KB/s ]
Размер: 5.54 GB | Добавлен: 11 д. назад | Торрент скачан:20 раз
Смотреть онлайн День Друзейдарения | Скачать    Ребята, помогите собрать деньги на оплату серверов!!!

13-09-2021 17:34 День Друзейдарения Скачать торрент  

День Друзейдарения | Friendsgiving
Год выпуска: 2020
Страна: США
Студия: Red Hour Films, Rhea Films (II)
Жанр: Драма, комедия
Продолжительность: 01:35:48
Перевод: Профессиональный (многоголосый) | iTunes
Субтитры: Английские

Режиссер: Николь Паон

rating

В ролях: Малин Акерманm Кэт Деннингс, Джек Доннелли, Аиша Тайлер, Джейн Сеймур, Дион Коул, Райан Хансен, Челси Перетти, Кристин Тейлор, Эндрю Сантино

Описание: Молли и Эбби вместе со своими близкими друзьями и знакомыми устраивают комичный и хаотичный ужин в День Благодарения.

Качество: BDRip 720p
Формат: MKV

Видео: MPEG-4 AVC, 7256 Кb/s, 1280x692, 23.976 fps
Аудио #1 Russian: 48 kHz, AC3 Dolby Digital, 3/2 (L, C, R, l, r) + LFE ch, ~384 Kbps | MVO | iTunes
Аудио #2 English: 48 kHz, AC3 Dolby Digital, 3/2 (L, C, R, l, r) + LFE ch, ~640 Kbps | Original
скриншот  скриншот  скриншот  скриншот  

Complete name : Den.Druzeydareniya.2020.BDRip.720p.ELEKTRI4KA.UNIONGANG.mkv
Format : Matroska
Format version : Version 4
File size : 5.54 GiB
Duration : 1 h 35 min
Overall bit rate : 8 282 kb/s
Movie name : Den.Druzeydareniya.2020.BDRip.720p.ELEKTRI4KA.UNIONGANG.
Encoded date : UTC 2021-09-12 20:54:41
Writing application : mkvmerge v8.3.0 ('Over the Horizon') 32bit
Writing library : libebml v1.3.1 + libmatroska v1.4.2

Video
ID : 1
Format : AVC
Format/Info : Advanced Video Codec
Format profile : High@L4.1
Format settings : CABAC / 9 Ref Frames
Format settings, CABAC : Yes
Format settings, Reference frames : 9 frames
Codec ID : V_MPEG4/ISO/AVC
Duration : 1 h 35 min
Bit rate : 7 256 kb/s
Width : 1 280 pixels
Height : 692 pixels
Display aspect ratio : 1.85:1
Frame rate mode : Constant
Frame rate : 23.976 (24000/1001) FPS
Color space : YUV
Chroma subsampling : 4:2:0
Bit depth : 8 bits
Scan type : Progressive
Bits/(Pixel*Frame) : 0.342
Stream size : 4.86 GiB (88%)
Writing library : x264 core 161 r3018+53 ~ Encoded by Mocunaman in Portugal
Encoding settings : cabac=1 / ref=9 / deblock=1:-3:-3 / analyse=0x3:0x113 / me=umh / subme=11 / psy=1 / fade_compensate=0.00 / psy_rd=1.00:0.00 / mixed_ref=1 / me_range=32 / chroma_me=1 / trellis=2 / 8x8dct=1 / cqm=0 / deadzone=21, 11 / fast_pskip=0 / chroma_qp_offset=-2 / threads=22 / lookahead_threads=3 / sliced_threads=0 / nr=0 / decimate=0 / interlaced=0 / bluray_compat=0 / constrained_intra=0 / fgo=0 / bframes=8 / b_pyramid=2 / b_adapt=2 / b_bias=0 / direct=3 / weightb=1 / open_gop=0 / weightp=2 / keyint=250 / keyint_min=23 / scenecut=40 / intra_refresh=0 / rc_lookahead=60 / rc=crf / mbtree=0 / crf=15.7000 / qcomp=0.60 / qpmin=0:0:0 / qpmax=69:69:69 / qpstep=4 / vbv_maxrate=62500 / vbv_bufsize=78125 / crf_max=0.0 / nal_hrd=none / filler=0 / ip_ratio=1.30 / pb_ratio=1.20 / aq=3:0.80 / aq-sensitivity=10.00 / aq-factor=1.00:1.00:1.00 / aq2=0 / aq3=0
Language : English
Default : Yes
Forced : No
Color range : Limited
Color primaries : BT.709
Transfer characteristics : BT.709
Matrix coefficients : BT.709

Audio #1
ID : 2
Format : AC-3
Format/Info : Audio Coding 3
Commercial name : Dolby Digital
Codec ID : A_AC3
Duration : 1 h 35 min
Bit rate mode : Constant
Bit rate : 384 kb/s
Channel(s) : 6 channels
Channel layout : L R C LFE Ls Rs
Sampling rate : 48.0 kHz
Frame rate : 31.250 FPS (1536 SPF)
Compression mode : Lossy
Stream size : 263 MiB (5%)
Title : MVO (iTunes)
Language : Russian
Service kind : Complete Main
Default : Yes
Forced : Yes

Audio #2
ID : 3
Format : AC-3
Format/Info : Audio Coding 3
Commercial name : Dolby Digital
Codec ID : A_AC3
Duration : 1 h 35 min
Bit rate mode : Constant
Bit rate : 640 kb/s
Channel(s) : 6 channels
Channel layout : L R C LFE Ls Rs
Sampling rate : 48.0 kHz
Frame rate : 31.250 FPS (1536 SPF)
Compression mode : Lossy
Stream size : 439 MiB (8%)
Title : Original
Language : English
Service kind : Complete Main
Default : No
Forced : No

Text #1
ID : 4
Format : UTF-8
Codec ID : S_TEXT/UTF8
Codec ID/Info : UTF-8 Plain Text
Duration : 1 h 34 min
Bit rate : 96 b/s
Count of elements : 1871
Stream size : 66.3 KiB (0%)
Title : Full
Language : English
Default : Yes
Forced : No

Text #2
ID : 5
Format : UTF-8
Codec ID : S_TEXT/UTF8
Codec ID/Info : UTF-8 Plain Text
Duration : 1 h 34 min
Bit rate : 105 b/s
Count of elements : 2083
Stream size : 73.0 KiB (0%)
Title : SDH
Language : English
Default : No
Forced : No

Menu
00:00:00.000 : en:Chapter 1
00:06:07.367 : en:Chapter 2
00:10:15.782 : en:Chapter 3
00:17:12.615 : en:Chapter 4
00:24:11.533 : en:Chapter 5
00:29:54.251 : en:Chapter 6
00:34:58.722 : en:Chapter 7
00:41:26.234 : en:Chapter 8
00:46:32.873 : en:Chapter 9
00:53:05.724 : en:Chapter 10
00:59:45.916 : en:Chapter 11
01:04:47.425 : en:Chapter 12
01:12:02.485 : en:Chapter 13
01:18:06.891 : en:Chapter 14
01:24:09.544 : en:Chapter 15
01:30:04.107 : en:Chapter 16

pb.wtf



Скачать День Друзейдарения через торрент https://i115.fastpic.org/big/2021/0801/c7/0ab8214ae82e95f8762bc25b25b86fc7.jpg Скачать, смотреть онлайн День Друзейдарения бесплантно в хорошем качестве Описание: Молли и Эбби вместе со своими близкими друзьями и знакомыми устраивают комичный и хаотичный ужин в День ... 10 10 2
Торрент: Зарегистрирован [2021-09-13 17:34] · скачан: 20 раз
Статус: √ проверено
Размер: 5.54 GB
Как cкачать? Как скачать День Друзейдарения через торрент | UTorrent

% Раздел Тема Автор DL S | L
Фильмы [HD 720p, 1080p] (Хороший звук DUB, MVO) [ 9.93 GB ] День Друзейдарения / Friendsgiving [2020 BDRip 1080p] MVO bober100 Скачать
4 | 0
Фильмы 2019-2020 [DVDrip, WEB-DLRip, HDrip] (DUB, MVO) [ 1.46 GB ] День Друзейдарения / Friendsgiving [2020 BDRip] MVO bober100 Скачать
1 | 0

28-11-2019 20:33  

Отключить всю рекламу на сайте

    Дорогой пользователь! Огромная просьба, поблагодарите релизера, оцените раздачу и оставьте свои комментарий, если Вы скачали День Друзейдарения через торрент бесплатно!
    Комментировать посты могут только пользователи прошедшие не сложную регистрацию
    Показать сообщения:    

    День Друзейдарения через торрент
    Скачать бесплатно День Друзейдарения
    День Друзейдарения скачать торрент
    День Друзейдарения смотреть онлайн
    Cкачать фильм День Друзейдарения бесплатно
    День Друзейдарения скачать торрент в хорошем качестве
    День Друзейдарения смотреть онлайн бесплатно в хорошем качестве


    Вы не можете начинать темы
    Вы не можете отвечать на сообщения
    Вы не можете редактировать свои сообщения
    Вы не можете удалять свои сообщения
    Вы не можете голосовать в опросах
    Вы не можете прикреплять файлы к сообщениям
    Вы можете скачивать файлы