Присоединяйтесь к нам в Telegram!, здесь всегда актуальный адрес сайта, оперативная поддержка и многое другое!!

>

5.9

iTunes

7.4

iTunes

9.4

1 сезон

1

7.4

2 сезон

7.2

iTunes

7.3

1 сезон

13

6.1

iTunes

8.3

Пиратка

30

ULTIMATE

pack

9.9

Лицензия

ВАЖНО

ИГРА 18+

pack

7.3

RePack

MK11

7.7

RePack

jed

7.8

RePack

fifa19

8.5

RePack

RDR2

RePack

NEED FOR SPEED™ PAYBACK

5 сезон

9 сезон

Бесстыжие 9 сезон

Все сериалы

все сериалы на PB.wtf

RePack

FAR CRY 5

Anonymous, доброй ночи, мы катастрофически не успеваем собрать деньги на оплату серверов, помогите нам пожалуйста 5,10,15р., для нас важна любая помощь . В качестве благодарности мы отключим Вам всю рекламу на сайте (укажите свой ник в строку Ваше имя)!

×
  
Magnet ссылка

Дрянные старушки / Queen Bees (Майкл Лембек) [2021, Комедия, драма, мелодрама, WEB-DLRip-AVC] MVO от MediaBit pb.wtf

Дрянные старушки через торрент pb.wtf

Размер: 2.05 GB | Добавлен: 2 мес. 22 д. назад | Торрент скачан:18 раз
Смотреть онлайн Дрянные старушки | Скачать    Ребята, помогите собрать деньги на оплату серверов!!!

13-09-2021 17:49 Дрянные старушки Скачать торрент  


Дрянные старушки / Queen Bees
Информация о фильме:
Название: Дрянные старушки
Оригинальное название: Queen Bees
Год выхода: 2021
Жанр: Комедия, драма, мелодрама
Режиссер: Майкл Лембек
В ролях: Эллен Бёрстин, Джеймс Каан, Энн-Маргрет, Джейн Кёртин, Лоретта Дивайн, Кристофер Ллойд, Элизабет Митчелл, Мэттью Барнс, Френч Стюарт, Алек Мапа
Роли озвучивали : Людмила Гнилова, Наталья Казначеева, Ирина Савина, Мария Овчинникова, Глеб Глушаков, Генадий Новиков, Алексей Войтюк.

Описание: На время ремонта своего дома Хелен переезжает в коммуну для пожилых людей, где ее ждут не только турниры по бриджу, но и буллинг со стороны других женщин, с чем она не сталкивалась со времен старшей школы. Все это поначалу вызывает у Хелен тоску по одиночеству и собственному дому, однако вскоре она находит новых друзей и даже любовь.



Страна: США
Студия: Astute Films, Big Indie Pictures
Продолжительность: 01:41:41
Перевод: Профессиональный (многоголосый, закадровый)



Информация о файле:
Кодек: AVC
Формат: MKV
Качество: WEB-DLRip-AVC
Видео: MPEG-4 AVC, 1024x552, 23.976 fps, 2244 kbps
Аудио RU: AC3, 2 ch, 48 kHz, 192 kbps
Аудио EN: AC3, 6 ch, 48 kHz, 448 kbps
Субтитры: Английские

x264 info: frame I:1306 Avg QP:14.91 size:111999
x264 info: frame P:28799 Avg QP:17.39 size: 31004
x264 info: frame B:116089 Avg QP:21.67 size: 5765
General
Unique ID : 60398091439014782281479618178988505812 (0x2D703FD16116063C7221D0D381F1FAD4)
Complete name : D:\uTorrent\Рипы wolf1245\Queen.Bees.2021.MVO.WEB-DLRip-AVC.[-=wolf1245.MediaBit=-].mkv
Format : Matroska
Format version : Version 4
File size : 2.05 GiB
Duration : 1 h 41 min
Overall bit rate : 2 882 kb/s
Movie name : Queen.Bees.2021.MVO.WEB-DLRip-AVC.[-=wolf1245.MediaBit=-]
Encoded date : UTC 2021-09-13 17:37:26
Writing application : mkvmerge v61.0.0 ('So') 64-bit
Writing library : libebml v1.4.2 + libmatroska v1.6.4

Video
ID : 1
Format : AVC
Format/Info : Advanced Video Codec
Format profile : High@L4.1
Format settings : CABAC / 14 Ref Frames
Format settings, CABAC : Yes
Format settings, Reference frames : 14 frames
Codec ID : V_MPEG4/ISO/AVC
Duration : 1 h 41 min
Bit rate : 2 244 kb/s
Width : 1 024 pixels
Height : 552 pixels
Display aspect ratio : 1.85:1
Frame rate mode : Constant
Frame rate : 23.976 (24000/1001) FPS
Color space : YUV
Chroma subsampling : 4:2:0
Bit depth : 8 bits
Scan type : Progressive
Bits/(Pixel*Frame) : 0.166
Stream size : 1.59 GiB (78%)
Title : [-=wolf1245.MediaBit=-]
Writing library : x264 core 161 r3020 d198931
Encoding settings : cabac=1 / ref=14 / deblock=1:-3:-3 / analyse=0x3:0x133 / me=umh / subme=11 / psy=1 / psy_rd=0.98:0.05 / mixed_ref=1 / me_range=48 / chroma_me=1 / trellis=2 / 8x8dct=1 / cqm=0 / deadzone=21,11 / fast_pskip=1 / chroma_qp_offset=-3 / threads=10 / lookahead_threads=2 / sliced_threads=0 / nr=0 / decimate=1 / interlaced=0 / bluray_compat=0 / constrained_intra=0 / bframes=12 / b_pyramid=2 / b_adapt=2 / b_bias=0 / direct=3 / weightb=1 / open_gop=0 / weightp=2 / keyint=240 / keyint_min=24 / scenecut=40 / intra_refresh=0 / rc_lookahead=60 / rc=2pass / mbtree=1 / bitrate=2244 / ratetol=1.0 / qcomp=0.60 / qpmin=0 / qpmax=69 / qpstep=4 / cplxblur=20.0 / qblur=0.5 / vbv_maxrate=50000 / vbv_bufsize=62500 / nal_hrd=none / filler=0 / ip_ratio=1.40 / aq=3:0.80
Language : English
Default : Yes
Forced : No
Color range : Limited
Color primaries : BT.709
Transfer characteristics : BT.709
Matrix coefficients : BT.709

Audio #1
ID : 2
Format : AC-3
Format/Info : Audio Coding 3
Commercial name : Dolby Digital
Codec ID : A_AC3
Duration : 1 h 41 min
Bit rate mode : Constant
Bit rate : 192 kb/s
Channel(s) : 2 channels
Channel layout : L R
Sampling rate : 48.0 kHz
Frame rate : 31.250 FPS (1536 SPF)
Compression mode : Lossy
Stream size : 140 MiB (7%)
Title : [MVO] Rus
Language : Russian
Service kind : Complete Main
Default : Yes
Forced : No

Audio #2
ID : 3
Format : AC-3
Format/Info : Audio Coding 3
Commercial name : Dolby Digital
Codec ID : A_AC3
Duration : 1 h 41 min
Bit rate mode : Constant
Bit rate : 448 kb/s
Channel(s) : 6 channels
Channel layout : L R C LFE Ls Rs
Sampling rate : 48.0 kHz
Frame rate : 31.250 FPS (1536 SPF)
Compression mode : Lossy
Stream size : 326 MiB (16%)
Title : Original
Language : English
Service kind : Complete Main
Default : No
Forced : No

Text
ID : 4
Format : UTF-8
Codec ID : S_TEXT/UTF8
Codec ID/Info : UTF-8 Plain Text
Duration : 1 h 37 min
Bit rate : 79 b/s
Count of elements : 1875
Stream size : 57.2 KiB (0%)
Title : English (SDH)
Language : English
Default : No
Forced : No
Релиз от: &

Автор релиза:
pb.wtf



Скачать Дрянные старушки через торрент https://i115.fastpic.org/big/2021/0913/6a/c48159976c86b51f524f3f1d5ad4ec6a.jpg Скачать, смотреть онлайн Дрянные старушки бесплантно в хорошем качестве Описание: На время ремонта своего дома Хелен переезжает в коммуну для пожилых людей, где ее ждут не только турниры по бриджу, но и ... 10 10 1
Торрент: Зарегистрирован [2021-09-13 17:49] · скачан: 18 раз
Статус: T временная
Размер: 2.05 GB
Как cкачать? Как скачать Дрянные старушки через торрент | UTorrent

28-11-2019 20:33  

Отключить всю рекламу на сайте

    Дорогой пользователь! Огромная просьба, поблагодарите релизера, оцените раздачу и оставьте свои комментарий, если Вы скачали Дрянные старушки через торрент бесплатно!
    Комментировать посты могут только пользователи прошедшие не сложную регистрацию
    Показать сообщения:    

    Дрянные старушки через торрент
    Скачать бесплатно Дрянные старушки
    Дрянные старушки скачать торрент
    Дрянные старушки смотреть онлайн
    Cкачать фильм Дрянные старушки бесплатно
    Дрянные старушки скачать торрент в хорошем качестве
    Дрянные старушки смотреть онлайн бесплатно в хорошем качестве


    Вы не можете начинать темы
    Вы не можете отвечать на сообщения
    Вы не можете редактировать свои сообщения
    Вы не можете удалять свои сообщения
    Вы не можете голосовать в опросах
    Вы не можете прикреплять файлы к сообщениям
    Вы можете скачивать файлы