Присоединяйтесь к нам в Telegram!, здесь всегда актуальный адрес сайта, оперативная поддержка и многое другое!!

>

5.9

iTunes

7.4

iTunes

9.4

1 сезон

1

7.4

2 сезон

7.2

iTunes

7.3

1 сезон

13

6.1

iTunes

8.3

Пиратка

30

ULTIMATE

pack

9.9

Лицензия

ВАЖНО

ИГРА 18+

pack

7.3

RePack

MK11

7.7

RePack

jed

7.8

RePack

fifa19

8.5

RePack

RDR2

RePack

NEED FOR SPEED™ PAYBACK

5 сезон

9 сезон

Бесстыжие 9 сезон

Все сериалы

все сериалы на PB.wtf

RePack

FAR CRY 5

Anonymous, доброй ночи, мы катастрофически не успеваем собрать деньги на оплату серверов, помогите нам пожалуйста 5,10,15р., для нас важна любая помощь . В качестве благодарности мы отключим Вам всю рекламу на сайте (укажите свой ник в строку Ваше имя)!

×
  
Magnet ссылка

Принцесса якудза / Yakuza Princess (Висенте Аморим) [2021, Триллер, криминал, WEB-DLRip-AVC] DUB [iTunes] pb.wtf

Принцесса якудза через торрент pb.wtf

Раздают: 1 [ 0 KB/s ]
Размер: 2.18 GB | Добавлен: 2 мес. 22 д. назад | Торрент скачан:119 раз
Смотреть онлайн Принцесса якудза | Скачать    Ребята, помогите собрать деньги на оплату серверов!!!

13-09-2021 19:03 Принцесса якудза Скачать торрент  

Принцесса якудза | Yakuza Princess
Год выпуска: 2021
Страна: Бразилия
Выпущено: Filmland Internationalt
Жанр: Триллер, криминал
Продолжительность: 01:51:15
Перевод: Дублированный | iTunes
Субтитры: Aнглийские

Режиссер: Висенте Аморим

rating

В ролях: MASUMI, Джонатан Рис-Майерс, Цуёси Ихара, Кенни Леу, Лукас Оранмиан, Эйдзиро Одзаки, Чарльз Паравенти, Марико Такаи, Тосидзи Такесима, Николаш Тревижану

Описание: Японская община в Сан-Паулу. 21-летняя сирота Акэми узнает, что она — наследница половины империи якудза, и что другая половина знаменитого преступного синдиката жаждет ее смерти. Посланники якудза начинают преследовать девушку, жизнь которой теперь висит на волоске. Спасение приходит от страдающего амнезией иностранца, который уверен — его судьбу с японской девушкой связывает древний самурайский меч.

Качество: WEB-DLRip-AVC
Формат: MKV

Видео: 1024x428 at 23.976 fps, x264@L4.1, ~1976 kbps, 0.188 bpp
Аудио 1: 48 kHz, AC3 Dolby Digital, 3/2 (L, C, R, l, r) + LFE ch, ~384 Kbps - | Русский | -
Аудио 2: 48 kHz, AC3 Dolby Digital, 3/2 (L, C, R, l, r) + LFE ch, ~448 Kbps - | Английский | -
скриншот  скриншот  скриншот  скриншот  скриншот  

x264 [info]: frame I:1211 Avg QP:12.99 size: 67156
x264 [info]: frame P:37759 Avg QP:16.48 size: 22218
x264 [info]: frame B:121058 Avg QP:19.02 size: 5995
x264 [info]: consecutive B-frames: 3.1% 4.1% 9.7% 21.6% 18.3% 34.7% 5.1% 1.4% 1.4% 0.1% 0.1% 0.1% 0.4%

General
Unique ID : 249834292926378958876981069238375140145 (0xBBF455A7920AB23E9EA90E020C59CB31)
Complete name : K:Принцесса якудза.(2021).WEB-DLRip-AVC.[-=DoMiNo=-].mkv
Format : Matroska
Format version : Version 4
File size : 2.18 GiB
Duration : 1 h 51 min
Overall bit rate : 2 807 kb/s
Movie name : Принцесса якудза.(2021).WEB-DLRip-AVC.[-=DoMiNo=-]
Encoded date : UTC 2021-09-13 18:53:48
Writing application : mkvmerge v61.0.0 ('So') 64-bit
Writing library : libebml v1.4.2 + libmatroska v1.6.4
Cover : Yes
Attachments : Cover.png / Cover 2.jpg

Video
ID : 1
Format : AVC
Format/Info : Advanced Video Codec
Format profile : High@L4.1
Format settings : CABAC / 12 Ref Frames
Format settings, CABAC : Yes
Format settings, Reference : 12 frames
Codec ID : V_MPEG4/ISO/AVC
Duration : 1 h 51 min
Bit rate : 1 976 kb/s
Width : 1 024 pixels
Height : 428 pixels
Display aspect ratio : 2.40:1
Frame rate mode : Constant
Frame rate : 23.976 (24000/1001) FPS
Color space : YUV
Chroma subsampling : 4:2:0
Bit depth : 8 bits
Scan type : Progressive
Bits/(Pixel*Frame) : 0.188
Stream size : 1.53 GiB (70%)
Title : -=DoMiNo=-
Writing library : x264 core 164 r3065+55M 280faca t_mod_New [(8 & 10)-bit@all X86_64]
Encoding settings : cabac=1 / ref=12 / deblock=1:-3:-2 / analyse=0x3:0x133 / me=umh / subme=10 / psy=1 / fade_compensate=0.00 / psy_rd=1.00:0.08 / mixed_ref=1 / me_range=32 / chroma_me=1 / trellis=2 / 8x8dct=1 / cqm=0 / deadzone=21,11 / fast_pskip=0 / chroma_qp_offset=-3 / threads=24 / lookahead_threads=3 / sliced_threads=0 / nr=0 / decimate=0 / interlaced=0 / bluray_compat=0 / constrained_intra=0 / fgo=0 / bframes=12 / b_pyramid=2 / b_adapt=2 / b_bias=0 / direct=3 / weightb=1 / open_gop=0 / weightp=2 / keyint=240 / keyint_min=23 / scenecut=40 / intra_refresh=0 / rc_lookahead=60 / rc=2pass / mbtree=0 / bitrate=1976 / ratetol=1.0 / qcomp=0.65 / qpmin=0:0:0 / qpmax=69:69:69 / qpstep=4 / cplxblur=20.0 / qblur=0.5 / vbv_maxrate=50000 / vbv_bufsize=62500 / nal_hrd=none / filler=0 / ip_ratio=1.40 / pb_ratio=1.30 / aq=2:1.00 / aq-sensitivity=10.00 / aq-factor=1.00:1.00:1.00 / aq2=0 / aq3=0
Language : English
Default : Yes
Forced : No

Audio #1
ID : 2
Format : AC-3
Format/Info : Audio Coding 3
Commercial name : Dolby Digital
Codec ID : A_AC3
Duration : 1 h 51 min
Bit rate mode : Constant
Bit rate : 384 kb/s
Channel(s) : 6 channels
Channel layout : L R C LFE Ls Rs
Sampling rate : 48.0 kHz
Frame rate : 31.250 FPS (1536 SPF)
Compression mode : Lossy
Stream size : 306 MiB (14%)
Title : DUB (iTunes)
Language : Russian
Service kind : Complete Main
Default : Yes
Forced : Yes

Audio #2
ID : 3
Format : AC-3
Format/Info : Audio Coding 3
Commercial name : Dolby Digital
Codec ID : A_AC3
Duration : 1 h 51 min
Bit rate mode : Constant
Bit rate : 448 kb/s
Channel(s) : 6 channels
Channel layout : L R C LFE Ls Rs
Sampling rate : 48.0 kHz
Frame rate : 31.250 FPS (1536 SPF)
Compression mode : Lossy
Stream size : 356 MiB (16%)
Language : English
Service kind : Complete Main
Default : No
Forced : No

Text
ID : 4
Format : UTF-8
Codec ID : S_TEXT/UTF8
Codec ID/Info : UTF-8 Plain Text
Duration : 1 h 44 min
Bit rate : 19 b/s
Count of elements : 677
Stream size : 14.6 KiB (0%)
Language : English
Default : No
Forced : No

pb.wtf



Скачать Принцесса якудза через торрент https://d.radikal.ru/d24/2109/a8/24e60ae0a700.png Скачать, смотреть онлайн Принцесса якудза бесплантно в хорошем качестве Описание: Японская община в Сан-Паулу. 21-летняя сирота Акэми узнает, что она — наследница половины империи якудза, и что другая половина ... 9.6 10 9
Торрент: Зарегистрирован [2021-09-13 19:03] · скачан: 119 раз
Статус: √ проверено
Размер: 2.18 GB
Как cкачать? Как скачать Принцесса якудза через торрент | UTorrent

% Раздел Тема Автор DL S | L
Фильмы [HD 720p, 1080p] (Хороший звук DUB, MVO) [ 12.29 GB ] Принцесса якудза / Yakuza Princess [2021 BDRip 1080p] bober100 Скачать
3 | 0
Ultra HD (UHD: 2K, 4K, 8K) — видео сверхвысокой чёткости [ 70.71 GB ] Принцесса якудза / Yakuza Princess [2021 UHD BDRemux 2160p ] bober100 Скачать
3 | 0
Ultra HD (UHD: 2K, 4K, 8K) — видео сверхвысокой чёткости [ 60.63 GB ] Принцесса якудза / Yakuza Princess [2021 UHD BDRemux 2160p] bober100 Скачать
1 | 0
Фильмы 2021 [DVDrip, WEB-DLRip, HDrip] (DUB, MVO) [ 2 GB ] Принцесса якудза / Yakuza Princess [2021 HDRip-AVC] от ExKinoRay Lithuania Скачать
8 | 0
Фильмы 2021 [DVDrip, WEB-DLRip, HDrip] (DUB, MVO) [ 1.46 GB ] Принцесса якудза / Yakuza Princess [2021 WEB-DLRip] bober100 Скачать
4 | 0
Фильмы (WEB-DL 720p, 1080p) [ 4.95 GB ] Принцесса якудза / Yakuza Princess [2021 WEB-DL 1080p] bober100 Скачать
3 | 0

28-11-2019 20:33  

Отключить всю рекламу на сайте

14-09-2021 18:31 Принцесса якудза Скачать торрент  

Бредpb.wtf



    Дорогой пользователь! Огромная просьба, поблагодарите релизера, оцените раздачу и оставьте свои комментарий, если Вы скачали Принцесса якудза через торрент бесплатно!
    Комментировать посты могут только пользователи прошедшие не сложную регистрацию
    Показать сообщения:    

    Принцесса якудза через торрент
    Скачать бесплатно Принцесса якудза
    Принцесса якудза скачать торрент
    Принцесса якудза смотреть онлайн
    Cкачать фильм Принцесса якудза бесплатно
    Принцесса якудза скачать торрент в хорошем качестве
    Принцесса якудза смотреть онлайн бесплатно в хорошем качестве


    Вы не можете начинать темы
    Вы не можете отвечать на сообщения
    Вы не можете редактировать свои сообщения
    Вы не можете удалять свои сообщения
    Вы не можете голосовать в опросах
    Вы не можете прикреплять файлы к сообщениям
    Вы можете скачивать файлы