Anonymous, добрый день, присоединяйтесь к нам в Telegram!, здесь всегда актуальный адрес сайта, оперативная поддержка и многое другое!

>

5.6

iTunes

7.4

iTunes

5.7

MVO

1

7.7

1 сезон

6.8

iTunes

7.3

1 сезон

13

6.7

1 сезон

8.3

RePack

30

ULTIMATE

pack

9.9

Лицензия

ВАЖНО

ИГРА 18+

pack

7.3

RePack

MK11

7.7

RePack

jed

7.8

RePack

fifa19

8.5

RePack

RDR2

RePack

NEED FOR SPEED™ PAYBACK

4 сезон

9 сезон

Бесстыжие 9 сезон

Все сериалы

все сериалы на PB.wtf

RePack

FAR CRY 5

Anonymous, добрый день, мы катастрофически не успеваем собрать деньги на оплату серверов, помогите нам пожалуйста 5,10,15р., для нас важна любая помощь . В качестве благодарности мы отключим Вам всю рекламу на сайте (укажите свой ник в строку Ваше имя)!

×
  
Magnet ссылка

Зёма / Сезон: 3 / Серии: 1-10 из 10 (Семён Молоканов, Антон Просвирнин, Алексей Смирнов) [2021, Комедия, драма, криминал, WEB-DL 720p] pb.wtf

Зёма через торрент pb.wtf

Раздают: 4 [ 457 KB/s ] Качают: 3 [ 0 KB/s ]
Размер: 5.93 GB | Добавлен: 1 д. 17 ч. назад | Торрент скачан:10 раз
Смотреть онлайн Зёма | Скачать    Ребята, помогите собрать деньги на оплату серверов!!!

14-09-2021 04:33 Зёма Скачать торрент  

Зёма 3
Год выпуска: 2021
Страна: Россия
Студия: ООО «Ящер Пиксчерс»
Жанр: Комедия, драма, криминал
Продолжительность: ~ 00:28:00
Перевод: Не требуется
Субтитры: отсутствуют

Режиссер: Семён Молоканов, Антон Просвирнин, Алексей Смирнов, Вадим Валиуллин



В ролях: Семён Молоканов, Мила Сайфутдинова, Артём Бординов, Денис Сундуков, Николай Корчагин, Никита Кологривый, Павел Тачков, Олег Тифанов, Алексей Панин, Кирилл Полухин

Описание: Зёма – простой пацан, который живет по своим понятиям. Сериал насыщен историями и проблемами четких пацанов. В третьем сезоне вас ждут комические приключения в поиске быстрых денег. А Зёма покажет молодежи, что поколение 30-летних рано списывать со счетов.

Качество: WEB-DL 720p
Формат: MKV

Видео: MPEG-4 AVC, ~ 4000 Кбит/с, 1280x720, 25 Кадр/с
Аудио: 48.0 kHz, AC3 Dolby Digital, 2/0 (L,R) ch, ~ 192 kbps
скриншот  скриншот  скриншот  скриншот  

Общее
Уникальный идентификатор : 150896294559205854526240958324532096882 (0x718591B853D9FEF3D012563669A0AF72)
Полное имя : D:Zyoma.S03.2021.WEB-DL.720p1.Zyoma.S03.2021.WEB-DL.720p.mkv
Формат : Matroska
Версия формата : Version 4
Размер файла : 817 Мбайт
Продолжительность : 27 м. 18 с.
Общий поток : 4 180 Кбит/сек
Название фильма : 01.Zyoma.S03.2021.WEB-DL.720p
Дата кодирования : UTC 2021-09-14 15:49:47
Программа кодирования : mkvmerge v60.0.0 ('Are We Copies?') 64-bit
Библиотека кодирования : libebml v1.4.2 + libmatroska v1.6.4
Attachments : poster.jpg

Видео
Идентификатор : 1
Формат : AVC
Формат/Информация : Advanced Video Codec
Профиль формата : High@L3.1
Настройки формата : CABAC / 5 Ref Frames
Параметр CABAC формата : Да
Параметр RefFrames формата : 5 кадров
Идентификатор кодека : V_MPEG4/ISO/AVC
Продолжительность : 27 м. 18 с.
Битрейт : 4 000 Кбит/сек
Ширина : 1 280 пикселей
Высота : 720 пикселей
Соотношение сторон : 16:9
Режим частоты кадров : Постоянный
Частота кадров : 25,000 кадров/сек
Цветовое пространство : YUV
Субдискретизация насыщенности : 4:2:0
Битовая глубина : 8 бит
Тип развёртки : Прогрессивная
Бит/(Пиксели*Кадры) : 0.174
Размер потока : 779 Мбайт (95%)
Библиотека кодирования : x264 core 157
Настройки программы : cabac=1 / ref=5 / deblock=1:0:0 / analyse=0x3:0x133 / me=umh / subme=10 / psy=1 / psy_rd=1.00:0.00 / mixed_ref=1 / me_range=24 / chroma_me=1 / trellis=2 / 8x8dct=1 / cqm=0 / deadzone=21,11 / fast_pskip=1 / chroma_qp_offset=-2 / threads=22 / lookahead_threads=3 / sliced_threads=0 / nr=0 / decimate=1 / interlaced=0 / bluray_compat=0 / constrained_intra=0 / bframes=8 / b_pyramid=2 / b_adapt=2 / b_bias=0 / direct=3 / weightb=1 / open_gop=0 / weightp=2 / keyint=200 / keyint_min=100 / scenecut=40 / intra_refresh=0 / rc_lookahead=60 / rc=2pass / mbtree=1 / bitrate=4000 / ratetol=1.0 / qcomp=0.60 / qpmin=0 / qpmax=69 / qpstep=4 / cplxblur=20.0 / qblur=0.5 / vbv_maxrate=4400 / vbv_bufsize=6000 / nal_hrd=none / filler=0 / ip_ratio=1.40 / aq=1:1.00
Default : Да
Forced : Нет

Аудио
Идентификатор : 2
Формат : AC-3
Формат/Информация : Audio Coding 3
Коммерческое название : Dolby Digital
Идентификатор кодека : A_AC3
Продолжительность : 27 м. 18 с.
Вид битрейта : Постоянный
Битрейт : 192 Кбит/сек
Каналы : 2 канала
Channel layout : L R
Частота : 48,0 КГц
Частота кадров : 31,250 кадров/сек (1536 SPF)
Метод сжатия : С потерями
Размер потока : 37,5 Мбайт (5%)
Service kind : Complete Main
Default : Да
Forced : Нет

Когда раздача ведётся путём добавления новых серий, при каждом добавлении создётся новый торрент. Чтобы начать докачку новой серии, пользователям необходимо сделать следующее:
(1) остановить скачивание,
(2) удалить старый торрент у себя из клиента (старые серии удалять не надо),
(3) скачать новый торрент и запустить его у себя в клиенте вместо старого, при этом указать клиенту путь в старую папку, куда и должно происходить скачивание новых серий.
Ваш клиент при этом должен произвести хеширование (проверку) старой папки (если не производит сам - помогите ему сделать это), и будет докачивать только те серии, которых у вас ещё нет. Старые серии при этом не удаляются, а продолжают раздаваться!
Eсли вы уже удалили старые серии, то предотвратить повторную закачку старых серий можно, отжав галочку в соответсвующих местах при запуске нового торрента. По возможности, желательно не удалять старые серии как можно дольше, чтобы релизёр не столько продолжал раздавать старые серии, а смог сконцентрироваться на новых.

pb.wtf



Скачать Зёма через торрент https://c.radikal.ru/c32/2109/f6/70ad10d7594c.jpg Скачать, смотреть онлайн Зёма бесплантно в хорошем качестве Описание: Зёма – простой пацан, который живет по своим понятиям. Сериал насыщен историями и проблемами четких пацанов. В третьем сезоне вас ... 8 10 7
Торрент: Зарегистрирован [2021-10-14 16:46] · скачан: 10 раз
Статус: √ проверено
Размер: 5.93 GB
Как cкачать? Как скачать Зёма через торрент | UTorrent

% Раздел Тема Автор DL S | L
TNT serials [ 8.76 GB ] Зёма / Сезон: 3 / Серии: 1-10 из 10 [2021 WEB-DL 1080p] bober100 Скачать
5 | 2

28-11-2019 20:33  

Отключить всю рекламу на сайте

    Дорогой пользователь! Огромная просьба, поблагодарите релизера, оцените раздачу и оставьте свои комментарий, если Вы скачали Зёма через торрент бесплатно!
    Комментировать посты могут только пользователи прошедшие не сложную регистрацию
    Показать сообщения:    

    Зёма через торрент
    Скачать бесплатно Зёма
    Зёма скачать торрент
    Зёма смотреть онлайн
    Cкачать фильм Зёма бесплатно
    Зёма скачать торрент в хорошем качестве
    Зёма смотреть онлайн бесплатно в хорошем качестве


    Вы не можете начинать темы
    Вы не можете отвечать на сообщения
    Вы не можете редактировать свои сообщения
    Вы не можете удалять свои сообщения
    Вы не можете голосовать в опросах
    Вы не можете прикреплять файлы к сообщениям
    Вы можете скачивать файлы