>

5.6

iTunes

6.1

MVO

5.7

MVO

1

7.4

1 сезон

6.8

iTunes

7.2

1 сезон

13

6.7

1 сезон

8.3

RePack

30

Deluxe

pack

9.9

Лицензия

ВАЖНО

ИГРА 18+

pack

7.3

RePack

MK11

7.7

RePack

jed

7.8

RePack

fifa19

8.5

RePack

RDR2

RePack

NEED FOR SPEED™ PAYBACK

4 сезон

9 сезон

Бесстыжие 9 сезон

Все сериалы

все сериалы на PB.wtf

RePack

FAR CRY 5

Anonymous, доброй ночи, мы катастрофически не успеваем собрать деньги на оплату серверов, помогите нам пожалуйста 5,10,15р., для нас важна любая помощь . В качестве благодарности мы отключим Вам всю рекламу на сайте (укажите свой ник в строку Ваше имя)!

×
  
Magnet ссылка

Зёма / Сезон: 1-2 / Серии: 1-16 из 16 (Семён Молоканов, Антон Просвирнин, Алексей Смирнов) [2016-2017, Криминал, комедия, WEB-DLRip-AVC] pb.wtf

Зёма через торрент pb.wtf

Раздают: 6 [ 0.3 KB/s ]
Размер: 2.66 GB | Добавлен: 10 д. назад | Торрент скачан:116 раз
Смотреть онлайн Зёма | Скачать    Ребята, помогите собрать деньги на оплату серверов!!!

14-09-2021 04:42 Зёма Скачать торрент  

Зёма 3
Год выпуска: 2016-2017
Страна: Россия
Студия: "ПЕНЗФИЛЬММАШ"
Жанр: Криминал, комедия
Продолжительность: ~ 00:15:00
Перевод: Не требуется
Субтитры: отсутствуют

Режиссер: Семён Молоканов, Антон Просвирнин, Алексей Смирнов



В ролях: Семён Молоканов, Мила Сайфутдинова, Артём Бординов, Денис Сундуков, Николай Корчагин, Павел Тачков, Олег Тифанов, Алексей Панин

Описание: На вечеринке Мила не может найти своего молодого человека. Неожиданно она встречает его в туалете – целующимся с другим парнем. Расстроенная девушка уезжает на такси, где знакомится с дворовым пацаном Зёмой. Но как бедный и необразованный парнишка сможет покорить красавицу из золотой молодежи? Получится ли у него измениться ради любви?

Качество: WEB-DLRip-AVC
Формат: MKV

Видео: MPEG-4 AVC, ~ 1600 Кбит/с, 1024х464, 1024x432, 25 кадр/с
Аудио: 48.0 kHz, AC3 Dolby Digital, 2/0 (L,R) ch, ~ 192 kbps
скриншот  скриншот  скриншот  скриншот  скриншот  

General
Unique ID : 209364512358229372573620170674589193769 (0x9D82236BD7521AE89CBB861BF754D629)
Complete name : F:\Зёма.S01-S02.(2018).WEB-DLRip.(AVC).Files-x\01.Zema.S01.(2016-2017).WEB-DLRip.(AVC).by.Серый1779.Files-x.mkv
Format : Matroska
Format version : Version 2
File size : 122 MiB
Duration : 9 min 30 s
Overall bit rate : 1 791 kb/s
Encoded date : UTC 2020-06-29 07:22:38
Writing application : mkvmerge v7.8.0 ('River Man') 32bit built on Apr 3 2015 12:11:22
Writing library : libebml v1.3.1 + libmatroska v1.4.2

Video
ID : 1
Format : AVC
Format/Info : Advanced Video Codec
Format profile : High@L4.1
Format settings : CABAC / 9 Ref Frames
Format settings, CABAC : Yes
Format settings, RefFrames : 9 frames
Codec ID : V_MPEG4/ISO/AVC
Duration : 9 min 30 s
Bit rate : 1 600 kb/s
Width : 1 024 pixels
Height : 464 pixels
Display aspect ratio : 2.2:1
Frame rate mode : Constant
Frame rate : 25.000 FPS
Color space : YUV
Chroma subsampling : 4:2:0
Bit depth : 8 bits
Scan type : Progressive
Bits/(Pixel*Frame) : 0.135
Stream size : 106 MiB (87%)
Writing library : x264 core 146 r2538 121396c
Encoding settings : cabac=1 / ref=9 / deblock=1:-2:-1 / analyse=0x3:0x133 / me=umh / subme=9 / psy=1 / psy_rd=1.00:0.15 / mixed_ref=1 / me_range=32 / chroma_me=1 / trellis=2 / 8x8dct=1 / cqm=0 / deadzone=21,11 / fast_pskip=0 / chroma_qp_offset=-3 / threads=18 / lookahead_threads=3 / sliced_threads=0 / nr=0 / decimate=1 / interlaced=0 / bluray_compat=0 / constrained_intra=0 / bframes=9 / b_pyramid=2 / b_adapt=2 / b_bias=0 / direct=1 / weightb=1 / open_gop=0 / weightp=2 / keyint=250 / keyint_min=25 / scenecut=40 / intra_refresh=0 / rc=2pass / mbtree=0 / bitrate=1600 / ratetol=1.0 / qcomp=0.60 / qpmin=0 / qpmax=69 / qpstep=4 / cplxblur=20.0 / qblur=0.5 / ip_ratio=1.40 / pb_ratio=1.30 / aq=2:1.00
Default : Yes
Forced : No
Color range : Limited
Color primaries : BT.709
Transfer characteristics : BT.709
Matrix coefficients : BT.709

Audio
ID : 2
Format : AC-3
Format/Info : Audio Coding 3
Format settings, Endianness : Big
Codec ID : A_AC3
Duration : 9 min 30 s
Bit rate mode : Constant
Bit rate : 192 kb/s
Channel(s) : 2 channels
Channel positions : Front: L R
Sampling rate : 48.0 kHz
Frame rate : 31.250 FPS (1536 SPF)
Bit depth : 16 bits
Compression mode : Lossy
Stream size : 13.1 MiB (11%)
Service kind : Complete Main
Default : Yes
Forced : No

Когда раздача ведётся путём добавления новых серий, при каждом добавлении создётся новый торрент. Чтобы начать докачку новой серии, пользователям необходимо сделать следующее:
(1) остановить скачивание,
(2) удалить старый торрент у себя из клиента (старые серии удалять не надо),
(3) скачать новый торрент и запустить его у себя в клиенте вместо старого, при этом указать клиенту путь в старую папку, куда и должно происходить скачивание новых серий.
Ваш клиент при этом должен произвести хеширование (проверку) старой папки (если не производит сам - помогите ему сделать это), и будет докачивать только те серии, которых у вас ещё нет. Старые серии при этом не удаляются, а продолжают раздаваться!
Eсли вы уже удалили старые серии, то предотвратить повторную закачку старых серий можно, отжав галочку в соответсвующих местах при запуске нового торрента. По возможности, желательно не удалять старые серии как можно дольше, чтобы релизёр не столько продолжал раздавать старые серии, а смог сконцентрироваться на новых.

pb.wtf



Скачать Зёма через торрент https://i112.fastpic.ru/big/2020/0629/af/a0e939a3301589cea86918faed161caf.jpg Скачать, смотреть онлайн Зёма бесплантно в хорошем качестве Описание: На вечеринке Мила не может найти своего молодого человека. Неожиданно она встречает его в туалете – целующимся с другим парнем. ... 10 10 5
Торрент: Зарегистрирован [2021-09-14 04:42] · скачан: 116 раз
Статус: √ проверено
Размер: 2.66 GB
Как cкачать? Как скачать Зёма через торрент | UTorrent

% Раздел Тема Автор DL S | L
Наши сериалы [ 2.45 GB ] Зёма / Сезон: 1 - 2 / Серии: 1-16 из 16 [2016-2017 WEB-DLRip] Леонид Ильич Скачать
4 | 0

28-11-2019 20:33  

Отключить всю рекламу на сайте

    Дорогой пользователь! Огромная просьба, поблагодарите релизера, оцените раздачу и оставьте свои комментарий, если Вы скачали Зёма через торрент бесплатно!
    Комментировать посты могут только пользователи прошедшие не сложную регистрацию
    Показать сообщения:    

    Зёма через торрент
    Скачать бесплатно Зёма
    Зёма скачать торрент
    Зёма смотреть онлайн
    Cкачать фильм Зёма бесплатно
    Зёма скачать торрент в хорошем качестве
    Зёма смотреть онлайн бесплатно в хорошем качестве


    Вы не можете начинать темы
    Вы не можете отвечать на сообщения
    Вы не можете редактировать свои сообщения
    Вы не можете удалять свои сообщения
    Вы не можете голосовать в опросах
    Вы не можете прикреплять файлы к сообщениям
    Вы можете скачивать файлы