Присоединяйтесь к нам в Telegram!, здесь всегда актуальный адрес сайта, оперативная поддержка и многое другое!!

>

5.9

iTunes

7.4

iTunes

9.4

1 сезон

1

7.4

2 сезон

7.2

iTunes

7.3

1 сезон

13

6.1

iTunes

8.3

Пиратка

30

ULTIMATE

pack

9.9

Лицензия

ВАЖНО

ИГРА 18+

pack

7.3

RePack

MK11

7.7

RePack

jed

7.8

RePack

fifa19

8.5

RePack

RDR2

RePack

NEED FOR SPEED™ PAYBACK

5 сезон

9 сезон

Бесстыжие 9 сезон

Все сериалы

все сериалы на PB.wtf

RePack

FAR CRY 5

Anonymous, доброе утро, мы катастрофически не успеваем собрать деньги на оплату серверов, помогите нам пожалуйста 5,10,15р., для нас важна любая помощь . В качестве благодарности мы отключим Вам всю рекламу на сайте (укажите свой ник в строку Ваше имя)!

×
  
Magnet ссылка

Легенда о Зелёном Рыцаре / The Green Knight (Дэвид Лоури) [2021 г., Фэнтези, приключения, драма, WEB-DLRip, Дубляж "iTunes"] pb.wtf

Легенда о Зелёном Рыцаре через торрент pb.wtf

Раздают: 1 [ 0 KB/s ]
Размер: 755 MB | Добавлен: 2 мес. 21 д. назад | Торрент скачан:30 раз
Смотреть онлайн Легенда о Зелёном Рыцаре | Скачать    Ребята, помогите собрать деньги на оплату серверов!!!

14-09-2021 18:22 Легенда о Зелёном Рыцаре Скачать торрент  

Легенда о Зелёном Рыцаре / The Green Knight
Год выпуска: 2021
Страна: Ирландия, Канада, США, Великобритания / A24 ,Bron Studios ,Creative Wealth Media Finance ,Ley Line Entertainment ,Sailor Bear ,Wild Atlantic Pictures
Жанр: Фэнтези, приключения, драма
Продолжительность: 02:04:14
Перевод: Дубляж (iTunes)
«Когда честь была превыше всего, когда миром правили храбрейшие»
Субтитры: русские форсированные–вшитые

Режиссер: Дэвид Лоури

rating

В ролях: Дев Патель, Алисия Викандер, Джоэл Эдгертон, Сарита Чоудри, Шон Харрис, Кейт Дики, Ралф Айнесон, Барри Кеоган, Эрин Келлиман, Анаис Риццо

Описание: Король празднует Рождество в замке в окружении двора и верных рыцарей, куда вдруг заявляется загадочный Зелёный Рыцарь и предлагает принять его вызов. Любой из присутствующих может нанести ему удар, но через год и один день он должен будет встретится с Зелёным Рыцарем в зелёной часовне в девяти днях пути на север и принять удар в ответ. Молодой сэр Гавейн, племянник и единственный наследник короля, вызывается на поединок и отрубает странному гостю голову. Но тот, приставив голову на место, напоминает об уговоре и удаляется. Год спустя верный данному слову сэр Гавейн отправляется навстречу судьбе в полное опасностей путешествие.

Качество: WEB-DLRip
Формат: AVI
Видео кодек: DivX
Аудио кодек: MP3
Видео: 640x352 (1.82:1), 25 fps, DivX Codec 4.x ~711 kbps avg, 0.13 bit/pixel
Аудио: 48 kHz, MPEG Layer 3, 2 ch, ~128.00 kbps avg

Общее
Полное имя : G:\ФИЛЬМЫ\Легенда о Зелёном Рыцаре.2021.D.WEB-DLRip.avi
Формат : AVI
Формат/Информация : Audio Video Interleave
Размер файла : 755 Мбайт
Продолжительность : 2 ч. 4 м.
Общий поток : 849 Кбит/сек
Программа кодирования : VirtualDubMod 1.5.10.3 | www.virtualdub-fr.org || (build 2550/release)
Библиотека кодирования : VirtualDubMod build 2550/release

Видео
Идентификатор : 0
Формат : MPEG-4 Visual
Профиль формата : Advanced Simple@L5
Настройки формата : BVOP2
Параметр BVOP формата : 2
Параметр QPel формата : Нет
Параметр GMC формата : Без точки перехода
Параметр матрицы формата : Default (MPEG)
Идентификатор кодека : DIVX
Идентификатор кодека/Информация : Project Mayo
Идентификатор кодека/Подсказка : DivX 4
Продолжительность : 2 ч. 4 м.
Битрейт : 712 Кбит/сек
Ширина : 640 пикселей
Высота : 352 пикселя
Соотношение сторон : 16:9
Частота кадров : 25,000 кадров/сек
Цветовое пространство : YUV
Субдискретизация насыщенности : 4:2:0
Битовая глубина : 8 бит
Тип развёртки : Прогрессивная
Метод сжатия : С потерями
Бит/(Пиксели*Кадры) : 0.126
Размер потока : 632 Мбайт (84%)
Библиотека кодирования : XviD 1.2.1 (UTC 2008-12-04)

Аудио
Идентификатор : 1
Формат : MPEG Audio
Версия формата : Version 1
Профиль формата : Layer 3
Настройки формата : Joint stereo
Идентификатор кодека : 55
Идентификатор кодека/Подсказка : MP3
Продолжительность : 2 ч. 4 м.
Вид битрейта : Постоянный
Битрейт : 128 Кбит/сек
Каналы : 2 канала
Частота : 48,0 КГц
Частота кадров : 41,667 кадра/сек (1152 SPF)
Метод сжатия : С потерями
Размер потока : 114 Мбайт (15%)
Выравнивание : Соединение по промежуткам
Продолжительность промежутка : 40 мс. (1,00 видеокадр)
Время предзагрузки промежутка : 504 мс.
Библиотека кодирования : LAME3.99r
Настройки программы : -m j -V 4 -q 2 -lowpass 17 -b 128

Report created by : MediaInfoLib - v21.03
Report created on : UTC 2021-09-14 18:06:48

pb.wtf



Скачать Легенда о Зелёном Рыцаре через торрент https://pic1.kartinco.top/new/img/2021-09/14/49oyj2y1dn8zkmt5hlyt2y5os.jpg Скачать, смотреть онлайн Легенда о Зелёном Рыцаре бесплантно в хорошем качестве Описание: Король празднует Рождество в замке в окружении двора и верных рыцарей, куда вдруг заявляется загадочный Зелёный Рыцарь и ... 10 10 3
Торрент: Зарегистрирован [2021-09-14 18:22] · скачан: 30 раз
Статус: √ проверено
Размер: 755 MB
Как cкачать? Как скачать Легенда о Зелёном Рыцаре через торрент | UTorrent

% Раздел Тема Автор DL S | L
Фильмы [HD 720p, 1080p] (Звук Cam, VO, DVO) [ 11.52 GB ] Легенда о Зелёном Рыцаре / The Green Knight [2021 BDRip 1080p] DVO [Кубик в кубе] bober100 Скачать
5 | 0
Фильмы 2021 [DVDrip, WEB-DLRip, HDrip] (DUB, MVO) [ 2.18 GB ] Легенда о Зелёном Рыцаре / The Green Knight [2021 BDRip] - [СинеЛаб СаундМикс] Twi7ter Скачать
16 | 0
Фильмы 2021 [DVDrip, WEB-DLRip, HDrip] (DUB, MVO) [ 1.46 GB ] Легенда о Зелёном Рыцаре / The Green Knight [2021 BDRip] - [СинеЛаб СаундМикс] Twi7ter Скачать
19 | 2
Фильмы 2021 [DVDrip, WEB-DLRip, HDrip] (DUB, MVO) [ 2.49 GB ] Легенда о Зелёном Рыцаре / The Green Knight [2021 HDLRip-AVC] DUB [ СинеЛаб СаундМикс] от ExKinoRay Lithuania Скачать
4 | 0
Ultra HD (UHD: 2K, 4K, 8K) — видео сверхвысокой чёткости [ 70.9 GB ] Легенда о Зелёном Рыцаре / The Green Knight [2021 UHD BDRemux 2160p ] DUB [СинеЛаб СаундМикс] bober100 Скачать
1 | 0
Ultra HD (UHD: 2K, 4K, 8K) — видео сверхвысокой чёткости [ 59.67 GB ] Легенда о Зелёном Рыцаре / The Green Knight [2021 UHD BDRemux 2160p ] DUB [СинеЛаб СаундМикс] bober100 Скачать
1 | 0
Фильмы [HD 720p, 1080p] (Хороший звук DUB, MVO) [ 11.57 GB ] Легенда о Зелёном Рыцаре / The Green Knight [2021 BDRip 1080p] DUB [СинеЛаб СаундМикс] bober100 Скачать
5 | 0

28-11-2019 20:33  

Отключить всю рекламу на сайте

    Дорогой пользователь! Огромная просьба, поблагодарите релизера, оцените раздачу и оставьте свои комментарий, если Вы скачали Легенда о Зелёном Рыцаре через торрент бесплатно!
    Комментировать посты могут только пользователи прошедшие не сложную регистрацию
    Показать сообщения:    

    Легенда о Зелёном Рыцаре через торрент
    Скачать бесплатно Легенда о Зелёном Рыцаре
    Легенда о Зелёном Рыцаре скачать торрент
    Легенда о Зелёном Рыцаре смотреть онлайн
    Cкачать фильм Легенда о Зелёном Рыцаре бесплатно
    Легенда о Зелёном Рыцаре скачать торрент в хорошем качестве
    Легенда о Зелёном Рыцаре смотреть онлайн бесплатно в хорошем качестве


    Вы не можете начинать темы
    Вы не можете отвечать на сообщения
    Вы не можете редактировать свои сообщения
    Вы не можете удалять свои сообщения
    Вы не можете голосовать в опросах
    Вы не можете прикреплять файлы к сообщениям
    Вы можете скачивать файлы