>

5.6

iTunes

6.1

MVO

5.7

MVO

1

7.4

1 сезон

6.8

iTunes

7.2

1 сезон

13

6.7

1 сезон

8.3

RePack

30

Deluxe

pack

9.9

Лицензия

ВАЖНО

ИГРА 18+

pack

7.3

RePack

MK11

7.7

RePack

jed

7.8

RePack

fifa19

8.5

RePack

RDR2

RePack

NEED FOR SPEED™ PAYBACK

4 сезон

9 сезон

Бесстыжие 9 сезон

Все сериалы

все сериалы на PB.wtf

RePack

FAR CRY 5

Anonymous, доброй ночи, мы катастрофически не успеваем собрать деньги на оплату серверов, помогите нам пожалуйста 5,10,15р., для нас важна любая помощь . В качестве благодарности мы отключим Вам всю рекламу на сайте (укажите свой ник в строку Ваше имя)!

×
  
Magnet ссылка

Полночь на злаковом поле / Midnight in the Switchgrass (Рэндолл Эмметт) [2021, Триллер, детектив, криминал, BDRip 720p] DUB [iTunes] pb.wtf

Полночь на злаковом поле через торрент pb.wtf

Раздают: 1 [ 73 KB/s ]
Размер: 4.24 GB | Добавлен: 10 д. назад | Торрент скачан:23 раза
Смотреть онлайн Полночь на злаковом поле | Скачать    Ребята, помогите собрать деньги на оплату серверов!!!

14-09-2021 22:24 Полночь на злаковом поле Скачать торрент  

Полночь на злаковом поле | Midnight in the Switchgrass
Год выпуска: 2021
Страна: США
Студия: BondIt, Emmett/Furla Films, Pimienta, River Bay Films, Verdi Productions
Жанр: Триллер, детектив, криминал
Продолжительность: 01:38:44
Перевод: Дублированный | iTunes
Субтитры: Русские (Forced), английские

Режиссер: Рэндолл Эмметт

rating

В ролях: Меган Фокс, Эмиль Хирш, Брюс Уиллис, Лукас Хаас, Кэйтлин Кармайкл, Олив Элиз Аберкромби, Jason Trawick, Лидия Халл, Уэлкер Уайт, Алек Монополи

Описание: Пенсакола, 2004 год. Два агента ФБР пытаются накрыть сеть торговцев людьми, когда выясняется, что их дело пересекается с многолетним безрезультатным расследованием серийных убийств молодых женщин. И хотя полицейский начальник слышать не хочет об официальном взаимодействии, ФРБ-ровцы объединяют усилия с местным детективом.

Качество: BDRip 720p
Формат: MKV

Видео: MPEG-4 AVC, 5123 Кb/s, 1280x536, 23.976 fps
Аудио #01: 48 kHz, AC3, 5.1, 384 Kbps | Дублированный | RUS |
Аудио #02: 48 kHz, AC3, 5.1, 640 Kbps | Оригинал | ENG |
скриншот  скриншот  скриншот  скриншот  

Complete name : Polnoch.na.zlakovom.pole.2021.BDRip.720p.ELEKTRI4KA.UNIONGANG.mkv
Format : Matroska
Format version : Version 4
File size : 4.24 GiB
Duration : 1 h 38 min
Overall bit rate : 6 149 kb/s
Movie name : Polnoch.na.zlakovom.pole.2021.BDRip.720p.ELEKTRI4KA.UNIONGANG.
Encoded date : UTC 2021-09-14 18:44:03
Writing application : mkvmerge v8.3.0 ('Over the Horizon') 32bit
Writing library : libebml v1.3.1 + libmatroska v1.4.2

Video
ID : 1
Format : AVC
Format/Info : Advanced Video Codec
Format profile : High@L4.1
Format settings : CABAC / 12 Ref Frames
Format settings, CABAC : Yes
Format settings, Reference frames : 12 frames
Codec ID : V_MPEG4/ISO/AVC
Duration : 1 h 38 min
Bit rate : 5 123 kb/s
Width : 1 280 pixels
Height : 536 pixels
Display aspect ratio : 2.40:1
Frame rate mode : Constant
Frame rate : 23.976 (24000/1001) FPS
Color space : YUV
Chroma subsampling : 4:2:0
Bit depth : 8 bits
Scan type : Progressive
Bits/(Pixel*Frame) : 0.311
Stream size : 3.53 GiB (83%)
Writing library : x264 core 157 r2938 2b00a84 TnP@MTeam Mod
Encoding settings : cabac=1 / ref=12 / deblock=1:-3:-3 / analyse=0x3:0x133 / me=umh / subme=10 / psy=1 / psy_rd=1.05:0.00 / mixed_ref=1 / me_range=32 / chroma_me=1 / trellis=2 / 8x8dct=1 / cqm=0 / deadzone=21, 11 / fast_pskip=0 / chroma_qp_offset=-2 / threads=12 / lookahead_threads=2 / sliced_threads=0 / nr=0 / decimate=0 / interlaced=0 / bluray_compat=0 / constrained_intra=0 / bframes=8 / b_pyramid=2 / b_adapt=2 / b_bias=0 / direct=3 / weightb=1 / open_gop=0 / weightp=2 / keyint=250 / keyint_min=24 / scenecut=40 / intra_refresh=0 / rc_lookahead=250 / rc=crf / mbtree=0 / crf=16.8 / qcomp=0.60 / qpmin=0 / qpmax=69 / qpstep=4 / vbv_maxrate=62500 / vbv_bufsize=78125 / crf_max=0.0 / nal_hrd=none / filler=0 / ip_ratio=1.30 / pb_ratio=1.20 / aq=3:0.80
Language : English
Default : Yes
Forced : No
Color range : Limited
Color primaries : BT.709
Matrix coefficients : BT.709

Audio #1
ID : 2
Format : AC-3
Format/Info : Audio Coding 3
Commercial name : Dolby Digital
Codec ID : A_AC3
Duration : 1 h 38 min
Bit rate mode : Constant
Bit rate : 384 kb/s
Channel(s) : 6 channels
Channel layout : L R C LFE Ls Rs
Sampling rate : 48.0 kHz
Frame rate : 31.250 FPS (1536 SPF)
Compression mode : Lossy
Stream size : 271 MiB (6%)
Title : DUB (iTunes)
Language : Russian
Service kind : Complete Main
Default : Yes
Forced : Yes

Audio #2
ID : 3
Format : AC-3
Format/Info : Audio Coding 3
Commercial name : Dolby Digital
Codec ID : A_AC3
Duration : 1 h 38 min
Bit rate mode : Constant
Bit rate : 640 kb/s
Channel(s) : 6 channels
Channel layout : L R C LFE Ls Rs
Sampling rate : 48.0 kHz
Frame rate : 31.250 FPS (1536 SPF)
Compression mode : Lossy
Stream size : 452 MiB (10%)
Title : Original
Language : English
Service kind : Complete Main
Default : No
Forced : No

Text #1
ID : 4
Format : UTF-8
Codec ID : S_TEXT/UTF8
Codec ID/Info : UTF-8 Plain Text
Duration : 1 h 17 min
Bit rate : 3 b/s
Count of elements : 45
Stream size : 2.11 KiB (0%)
Title : Forced
Language : Russian
Default : Yes
Forced : No

Text #2
ID : 5
Format : UTF-8
Codec ID : S_TEXT/UTF8
Codec ID/Info : UTF-8 Plain Text
Duration : 1 h 29 min
Bit rate : 50 b/s
Count of elements : 1020
Stream size : 32.6 KiB (0%)
Title : SRT
Language : English
Default : No
Forced : No

Menu
00:00:00.000 : en:Chapter 01
00:06:15.875 : en:Chapter 02
00:08:55.744 : en:Chapter 03
00:16:05.882 : en:Chapter 04
00:22:47.616 : en:Chapter 05
00:31:44.486 : en:Chapter 06
00:36:17.884 : en:Chapter 07
00:41:29.320 : en:Chapter 08
00:48:01.170 : en:Chapter 09
00:53:08.685 : en:Chapter 10
01:00:19.324 : en:Chapter 11
01:04:29.616 : en:Chapter 12
01:10:20.675 : en:Chapter 13
01:18:24.116 : en:Chapter 14
01:23:52.444 : en:Chapter 15
01:29:51.970 : en:Chapter 16

pb.wtf



Скачать Полночь на злаковом поле через торрент https://c.radikal.ru/c25/2109/ad/f9e2016a815a.jpg Скачать, смотреть онлайн Полночь на злаковом поле бесплантно в хорошем качестве Описание: Пенсакола, 2004 год. Два агента ФБР пытаются накрыть сеть торговцев людьми, когда выясняется, что их дело пересекается с ... 10 10 2
Торрент: Зарегистрирован [2021-09-14 22:24] · скачан: 23 раз
Статус: √ проверено
Размер: 4.24 GB
Как cкачать? Как скачать Полночь на злаковом поле через торрент | UTorrent

% Раздел Тема Автор DL S | L
Фильмы [HD 720p, 1080p] (Хороший звук DUB, MVO) [ 7.98 GB ] Полночь на злаковом поле / Midnight in the Switchgrass [2021 BDRip 1080p] +MVO [HDRezka Studio] bober100 Скачать
5 | 1
Фильмы 2021 [DVDrip, WEB-DLRip, HDrip] (DUB, MVO) [ 742 MB ] Полночь на злаковом поле / Midnight in the Switchgrass [2021 HDRip] bober100 Скачать
1 | 0
Фильмы 2021 [DVDrip, WEB-DLRip, HDrip] (DUB, MVO) [ 1.41 GB ] Полночь на злаковом поле / Midnight in the Switchgrass [2021 HDRip-AVC] bober100 Скачать
6 | 0
Фильмы [HD 720p, 1080p] (Хороший звук DUB, MVO) [ 4.21 GB ] Полночь на злаковом поле / Midnight in the Switchgrass [2021 BDRip 720p] +MVO [HDRezka Studio] bober100 Скачать
4 | 0
Фильмы (Blu-ray, BD-Remux, HDDVD) [ 21.73 GB ] Полночь на злаковом поле / Midnight in the Switchgrass [2021 BD Remux 1080p] +MVO [HDRezka Studio] bober100 Скачать
2 | 0
Фильмы (Blu-ray, BD-Remux, HDDVD) [ 20.23 GB ] Полночь на злаковом поле / Midnight in the Switchgrass [2021 BD Remux 1080p] bober100 Скачать
4 | 0
Фильмы [HD 720p, 1080p] (Хороший звук DUB, MVO) [ 11.22 GB ] Полночь на злаковом поле / Midnight in the Switchgrass [2021 BDRip 1080p] bober100 Скачать
2 | 0

28-11-2019 20:33  

Отключить всю рекламу на сайте

    Дорогой пользователь! Огромная просьба, поблагодарите релизера, оцените раздачу и оставьте свои комментарий, если Вы скачали Полночь на злаковом поле через торрент бесплатно!
    Комментировать посты могут только пользователи прошедшие не сложную регистрацию
    Показать сообщения:    

    Полночь на злаковом поле через торрент
    Скачать бесплатно Полночь на злаковом поле
    Полночь на злаковом поле скачать торрент
    Полночь на злаковом поле смотреть онлайн
    Cкачать фильм Полночь на злаковом поле бесплатно
    Полночь на злаковом поле скачать торрент в хорошем качестве
    Полночь на злаковом поле смотреть онлайн бесплатно в хорошем качестве


    Вы не можете начинать темы
    Вы не можете отвечать на сообщения
    Вы не можете редактировать свои сообщения
    Вы не можете удалять свои сообщения
    Вы не можете голосовать в опросах
    Вы не можете прикреплять файлы к сообщениям
    Вы можете скачивать файлы