>

5.6

iTunes

6.1

MVO

5.7

MVO

1

7.4

1 сезон

6.8

iTunes

7.2

1 сезон

13

6.7

1 сезон

8.3

RePack

30

Deluxe

pack

9.9

Лицензия

ВАЖНО

ИГРА 18+

pack

7.3

RePack

MK11

7.7

RePack

jed

7.8

RePack

fifa19

8.5

RePack

RDR2

RePack

NEED FOR SPEED™ PAYBACK

4 сезон

9 сезон

Бесстыжие 9 сезон

Все сериалы

все сериалы на PB.wtf

RePack

FAR CRY 5

Anonymous, доброй ночи, мы катастрофически не успеваем собрать деньги на оплату серверов, помогите нам пожалуйста 5,10,15р., для нас важна любая помощь . В качестве благодарности мы отключим Вам всю рекламу на сайте (укажите свой ник в строку Ваше имя)!

×
  
Magnet ссылка

Похищенный / Неверный / Infidel (Сайрус Наурасте) [2019, Боевик, триллер, BDRip 720p] DUB [iTunes] pb.wtf

Похищенный через торрент pb.wtf

Раздают: 1 [ 33 KB/s ]
Размер: 6.46 GB | Добавлен: 10 д. назад | Торрент скачан:10 раз
Смотреть онлайн Похищенный | Скачать    Ребята, помогите собрать деньги на оплату серверов!!!

14-09-2021 22:41 Похищенный Скачать торрент  

Похищенный | Неверный
Infidel

Год выпуска: 2019
Страна: США
Студия: Cloudburst Entertainment, D'Souza Media, New Path Pictures
Жанр: Боевик, триллер
Продолжительность: 01:48:07
Перевод: Дублированный | iTunes
Субтитры: Aнглийские

Режиссер: Сайрус Наурасте

rating

В ролях: Джеймс Кэвизел, Клаудия Карван, Хэл Озсэн, Стелио Саванте, Али Кассем, Биджан Данешманд, Кутайба Абдельхак, Изабель Адриани, Лейла Араби, Джей Эр Касия

Описание: Американский журналист похищен иранским режимом во время переговоров в Каире. Его перевозят на Ближний Восток, чтобы предать местному суду по ложным обвинениям. Жена журналиста, работающая в Госдепартаменте США, пытается использовать свое влияние, чтобы вовлечь американское правительство в спасательную операцию. Но вскоре женщина понимает, что властям безразлична судьба их журналиста. Тогда она сама едет на Ближний Восток, чтобы своими силами вытащить мужа из плена.

Качество: BDRip 720p
Формат: MKV

Видео: MPEG-4 AVC, 7528 Кb/s, 1280x534, 23.976 fps
Аудио #01: 48 kHz, AC3, 5.1, 384 Kbps | Дублированный | RUS |
Аудио #02: 48 kHz, AC3, 5.1, 640 Kbps | Оригинал | ENG |
скриншот  скриншот  скриншот  скриншот  

Complete name : Pohischennyiy.2019.BDRip.720p.ELEKTRI4KA.UNIONGANG.mkv
Format : Matroska
Format version : Version 4
File size : 6.46 GiB
Duration : 1 h 48 min
Overall bit rate : 8 553 kb/s
Movie name : Pohischennyiy.2019.BDRip.720p.ELEKTRI4KA.UNIONGANG.
Encoded date : UTC 2021-09-14 12:12:17
Writing application : mkvmerge v8.3.0 ('Over the Horizon') 32bit
Writing library : libebml v1.3.1 + libmatroska v1.4.2

Video
ID : 1
Format : AVC
Format/Info : Advanced Video Codec
Format profile : High@L4.1
Format settings : CABAC / 12 Ref Frames
Format settings, CABAC : Yes
Format settings, Reference frames : 12 frames
Codec ID : V_MPEG4/ISO/AVC
Duration : 1 h 48 min
Bit rate : 7 528 kb/s
Width : 1 280 pixels
Height : 534 pixels
Display aspect ratio : 2.40:1
Frame rate mode : Constant
Frame rate : 23.976 (24000/1001) FPS
Color space : YUV
Chroma subsampling : 4:2:0
Bit depth : 8 bits
Scan type : Progressive
Bits/(Pixel*Frame) : 0.459
Stream size : 5.69 GiB (88%)
Writing library : x264 core 161 r3018+53 ~ Encoded by Mocunaman in Portugal
Encoding settings : cabac=1 / ref=12 / deblock=1:-3:-3 / analyse=0x3:0x113 / me=umh / subme=11 / psy=1 / fade_compensate=0.00 / psy_rd=1.00:0.00 / mixed_ref=1 / me_range=32 / chroma_me=1 / trellis=2 / 8x8dct=1 / cqm=0 / deadzone=21, 11 / fast_pskip=0 / chroma_qp_offset=-2 / threads=17 / lookahead_threads=4 / sliced_threads=0 / nr=0 / decimate=0 / interlaced=0 / bluray_compat=0 / constrained_intra=0 / fgo=0 / bframes=10 / b_pyramid=2 / b_adapt=2 / b_bias=0 / direct=3 / weightb=1 / open_gop=0 / weightp=2 / keyint=250 / keyint_min=23 / scenecut=40 / intra_refresh=0 / rc_lookahead=60 / rc=crf / mbtree=0 / crf=15.7000 / qcomp=0.65 / qpmin=0:0:0 / qpmax=69:69:69 / qpstep=4 / vbv_maxrate=62500 / vbv_bufsize=78125 / crf_max=0.0 / nal_hrd=none / filler=0 / ip_ratio=1.30 / pb_ratio=1.20 / aq=3:0.85 / aq-sensitivity=10.00 / aq-factor=1.00:1.00:1.00 / aq2=0 / aq3=0 / zones=0, 23415, crf=15.2/27759, 30879, crf=15.2/39660, 42924, crf=15.2/49110, 49800, crf=15.2/66977, 69833, crf=15.2/78449, 83129, crf=15.2/87953, 102305, crf=15.2/121313, 122455, crf=15.2/125055, 129874, crf=15.2/131338, 132706, crf=15.2/134362, 151546, crf=15.2
Language : English
Default : Yes
Forced : No
Color range : Limited
Color primaries : BT.709
Transfer characteristics : BT.709
Matrix coefficients : BT.709

Audio #1
ID : 2
Format : AC-3
Format/Info : Audio Coding 3
Commercial name : Dolby Digital
Codec ID : A_AC3
Duration : 1 h 48 min
Bit rate mode : Constant
Bit rate : 384 kb/s
Channel(s) : 6 channels
Channel layout : L R C LFE Ls Rs
Sampling rate : 48.0 kHz
Frame rate : 31.250 FPS (1536 SPF)
Compression mode : Lossy
Stream size : 297 MiB (4%)
Title : DUB (iTunes)
Language : Russian
Service kind : Complete Main
Default : Yes
Forced : Yes

Audio #2
ID : 3
Format : AC-3
Format/Info : Audio Coding 3
Commercial name : Dolby Digital
Codec ID : A_AC3
Duration : 1 h 48 min
Bit rate mode : Constant
Bit rate : 640 kb/s
Channel(s) : 6 channels
Channel layout : L R C LFE Ls Rs
Sampling rate : 48.0 kHz
Frame rate : 31.250 FPS (1536 SPF)
Compression mode : Lossy
Stream size : 495 MiB (7%)
Title : Original
Language : English
Service kind : Complete Main
Default : No
Forced : No

Text #1
ID : 4
Format : UTF-8
Codec ID : S_TEXT/UTF8
Codec ID/Info : UTF-8 Plain Text
Duration : 1 h 43 min
Bit rate : 48 b/s
Count of elements : 1324
Stream size : 37.3 KiB (0%)
Title : Full .srt
Language : English
Default : No
Forced : No

Text #2
ID : 5
Format : UTF-8
Codec ID : S_TEXT/UTF8
Codec ID/Info : UTF-8 Plain Text
Duration : 1 h 47 min
Bit rate : 56 b/s
Count of elements : 1670
Stream size : 44.5 KiB (0%)
Title : SDH .srt
Language : English
Default : No
Forced : No

Menu
00:00:00.000 : en:Chapter 1
00:05:35.293 : en:Chapter 2
00:10:34.676 : en:Chapter 3
00:16:13.347 : en:Chapter 4
00:21:27.035 : en:Chapter 5
00:27:39.074 : en:Chapter 6
00:33:27.380 : en:Chapter 7
00:37:02.553 : en:Chapter 8
00:44:43.180 : en:Chapter 9
00:50:39.703 : en:Chapter 10
00:54:15.919 : en:Chapter 11
01:01:58.965 : en:Chapter 12
01:06:03.542 : en:Chapter 13
01:11:08.180 : en:Chapter 14
01:17:02.117 : en:Chapter 15
01:24:15.467 : en:Chapter 16
01:28:13.705 : en:Chapter 17
01:34:20.738 : en:Chapter 18
01:39:18.369 : en:Chapter 19
01:45:12.388 : en:Chapter 20

pb.wtf



Скачать Похищенный через торрент https://d.radikal.ru/d40/2109/73/594595bea26f.png Скачать, смотреть онлайн Похищенный бесплантно в хорошем качестве Описание: Американский журналист похищен иранским режимом во время переговоров в Каире. Его перевозят на Ближний Восток, чтобы предать ... 10 10 3
Торрент: Зарегистрирован [2021-09-14 22:41] · скачан: 10 раз
Статус: √ проверено
Размер: 6.46 GB
Как cкачать? Как скачать Похищенный через торрент | UTorrent

% Раздел Тема Автор DL S | L
Фильмы 2019-2020 [DVDrip, WEB-DLRip, HDrip] (DUB, MVO) [ 2.18 GB ] Похищенный / Неверный / Infidel [2019 HDRip-AVC] bober100 Скачать
3 | 0
Фильмы [HD 720p, 1080p] (Хороший звук DUB, MVO) [ 11.95 GB ] Похищенный / Неверный / Infidel [2019 BDRip 1080p] bober100 Скачать
7 | 0
Фильмы 2019-2020 [DVDrip, WEB-DLRip, HDrip] (DUB, MVO) [ 1.46 GB ] Похищенный / Неверный / Infidel [2019 HDRip] bober100 Скачать
2 | 0

28-11-2019 20:33  

Отключить всю рекламу на сайте

    Дорогой пользователь! Огромная просьба, поблагодарите релизера, оцените раздачу и оставьте свои комментарий, если Вы скачали Похищенный через торрент бесплатно!
    Комментировать посты могут только пользователи прошедшие не сложную регистрацию
    Показать сообщения:    

    Похищенный через торрент
    Скачать бесплатно Похищенный
    Похищенный скачать торрент
    Похищенный смотреть онлайн
    Cкачать фильм Похищенный бесплатно
    Похищенный скачать торрент в хорошем качестве
    Похищенный смотреть онлайн бесплатно в хорошем качестве


    Вы не можете начинать темы
    Вы не можете отвечать на сообщения
    Вы не можете редактировать свои сообщения
    Вы не можете удалять свои сообщения
    Вы не можете голосовать в опросах
    Вы не можете прикреплять файлы к сообщениям
    Вы можете скачивать файлы