>

5.6

iTunes

6.1

MVO

5.7

MVO

1

7.4

1 сезон

6.8

iTunes

7.2

1 сезон

13

6.7

1 сезон

8.3

RePack

30

Deluxe

pack

9.9

Лицензия

ВАЖНО

ИГРА 18+

pack

7.3

RePack

MK11

7.7

RePack

jed

7.8

RePack

fifa19

8.5

RePack

RDR2

RePack

NEED FOR SPEED™ PAYBACK

4 сезон

9 сезон

Бесстыжие 9 сезон

Все сериалы

все сериалы на PB.wtf

RePack

FAR CRY 5

Anonymous, доброй ночи, мы катастрофически не успеваем собрать деньги на оплату серверов, помогите нам пожалуйста 5,10,15р., для нас важна любая помощь . В качестве благодарности мы отключим Вам всю рекламу на сайте (укажите свой ник в строку Ваше имя)!

×
  
Magnet ссылка

Вуайеристы / The Voyeurs (Майкл Мохан) [2021, Триллер, WEB-DLRip-AVC] MVO (rus, ukr) [HDRezka Studio] pb.wtf

Вуайеристы через торрент pb.wtf

Раздают: 10 [ 2 KB/s ]
Размер: 2.67 GB | Добавлен: 10 д. назад | Торрент скачан:94 раза
Смотреть онлайн Вуайеристы | Скачать    Ребята, помогите собрать деньги на оплату серверов!!!

14-09-2021 23:33 Вуайеристы Скачать торрент  

Вуайеристы | The Voyeurs
Год выпуска: 2021
Страна: США
Выпущено: Divide/Conquer, Amazon Studios
Жанр: Триллер
Продолжительность: 01:56:19
Перевод: Профессиональный (многоголосый) | HDRezka Studio
Субтитры: Русские (Forced, Full), украинские (Forced), английские (Forced, Full, SDH)

Режиссер: Майкл Мохан

rating

В ролях: Сидни Свини, Наташа Лю Бордиццо, Бен Харди, Джастис Смит, Кэйтлин Александр, Кэтрин Кинг, Мадлен Харви, Дэниэл Гроган, Джиллиан Харрис, Джимми Каспер

Описание: Переехав в квартиру своей мечты, Пиппа и Томас замечают, что их окна выходят прямо на квартиру напротив, невольно приглашая их стать свидетелями изменчивых отношений привлекательной пары соседей. Но опрометчивая попытка анонимного вмешательства в чужую жизнь запускает цепь событий, неизбежно ведущих к катастрофе.

Качество: WEB-DLRip-AVC
Формат: MKV

Видео: MPEG-4 AVC, 1024x426 at 23.976 fps, x264@L4.1, ~2000 kbps, 0.191 bpp
Аудио 1: AC3, 6 ch, 448 Kbps, русский (MVO-HDrezka Studio)
Аудио 2: AC3, 6 ch, 384 Kbps, украинский (MVO-HDrezka Studio)
Аудио 3: AC3, 6 ch, 448 Kbps, английский
скриншот  скриншот  скриншот  скриншот  скриншот  

x264 [info]: frame I:1189 Avg QP:13.81 size: 64555
x264 [info]: frame P:31822 Avg QP:16.76 size: 22047
x264 [info]: frame B:134332 Avg QP:18.71 size: 7190
x264 [info]: consecutive B-frames: 1.2% 3.4% 4.0% 9.7% 14.0% 46.2% 7.7% 1.7% 8.7% 0.9% 1.2% 0.2% 0.7% 0.3% 0.3%

General
Unique ID : 240797553684048629342554622908876523241 (0xB527EC02C989E93CEDBF0136CA9906E9)
Complete name : K:Вуайеристы.(2021).WEB-DLRip-AVC.[-=DoMiNo=-].mkv
Format : Matroska
Format version : Version 4
File size : 2.67 GiB
Duration : 1 h 56 min
Overall bit rate : 3 282 kb/s
Movie name : Вуайеристы.(2021).WEB-DLRip-AVC.[-=DoMiNo=-]
Encoded date : UTC 2021-09-14 07:00:28
Writing application : mkvmerge v61.0.0 ('So') 64-bit
Writing library : libebml v1.4.2 + libmatroska v1.6.4
Cover : Yes
Attachments : Cover.jpg / Cover 2.jpg

Video
ID : 1
Format : AVC
Format/Info : Advanced Video Codec
Format profile : High@L4.1
Format settings : CABAC / 12 Ref Frames
Format settings, CABAC : Yes
Format settings, Reference : 12 frames
Codec ID : V_MPEG4/ISO/AVC
Duration : 1 h 56 min
Bit rate : 2 000 kb/s
Width : 1 024 pixels
Height : 426 pixels
Display aspect ratio : 2.40:1
Frame rate mode : Constant
Frame rate : 23.976 (24000/1001) FPS
Color space : YUV
Chroma subsampling : 4:2:0
Bit depth : 8 bits
Scan type : Progressive
Bits/(Pixel*Frame) : 0.191
Stream size : 1.62 GiB (61%)
Title : -=DoMiNo=-
Writing library : x264 core 164 r3065+55M 280faca t_mod_New [(8 & 10)-bit@all X86_64]
Encoding settings : cabac=1 / ref=12 / deblock=1:-3:-2 / analyse=0x3:0x133 / me=umh / subme=10 / psy=1 / fade_compensate=0.00 / psy_rd=1.00:0.00 / mixed_ref=1 / me_range=32 / chroma_me=1 / trellis=2 / 8x8dct=1 / cqm=0 / deadzone=21,11 / fast_pskip=0 / chroma_qp_offset=-2 / threads=24 / lookahead_threads=3 / sliced_threads=0 / nr=0 / decimate=0 / interlaced=0 / bluray_compat=0 / constrained_intra=0 / fgo=0 / bframes=14 / b_pyramid=2 / b_adapt=2 / b_bias=0 / direct=3 / weightb=1 / open_gop=0 / weightp=2 / keyint=240 / keyint_min=23 / scenecut=40 / intra_refresh=0 / rc_lookahead=60 / rc=2pass / mbtree=0 / bitrate=2000 / ratetol=1.0 / qcomp=0.60 / qpmin=0:0:0 / qpmax=69:69:69 / qpstep=4 / cplxblur=20.0 / qblur=0.5 / vbv_maxrate=50000 / vbv_bufsize=62500 / nal_hrd=none / filler=0 / ip_ratio=1.40 / pb_ratio=1.30 / aq=2:0.90 / aq-sensitivity=10.00 / aq-factor=1.00:1.00:1.00 / aq2=0 / aq3=0
Language : English
Default : Yes
Forced : No

Audio #1
ID : 2
Format : AC-3
Format/Info : Audio Coding 3
Commercial name : Dolby Digital
Codec ID : A_AC3
Duration : 1 h 56 min
Bit rate mode : Constant
Bit rate : 448 kb/s
Channel(s) : 6 channels
Channel layout : L R C LFE Ls Rs
Sampling rate : 48.0 kHz
Frame rate : 31.250 FPS (1536 SPF)
Compression mode : Lossy
Stream size : 373 MiB (14%)
Title : MVO (HDrezka Studio)
Language : Russian
Service kind : Complete Main
Default : Yes
Forced : No

Audio #2
ID : 3
Format : AC-3
Format/Info : Audio Coding 3
Commercial name : Dolby Digital
Codec ID : A_AC3
Duration : 1 h 56 min
Bit rate mode : Constant
Bit rate : 384 kb/s
Channel(s) : 6 channels
Channel layout : L R C LFE Ls Rs
Sampling rate : 48.0 kHz
Frame rate : 31.250 FPS (1536 SPF)
Compression mode : Lossy
Stream size : 320 MiB (12%)
Title : MVO (HDrezka Studio)
Language : Ukrainian
Service kind : Complete Main
Default : No
Forced : No

Audio #3
ID : 4
Format : AC-3
Format/Info : Audio Coding 3
Commercial name : Dolby Digital
Codec ID : A_AC3
Duration : 1 h 56 min
Bit rate mode : Constant
Bit rate : 448 kb/s
Channel(s) : 6 channels
Channel layout : L R C LFE Ls Rs
Sampling rate : 48.0 kHz
Frame rate : 31.250 FPS (1536 SPF)
Compression mode : Lossy
Stream size : 373 MiB (14%)
Language : English
Service kind : Complete Main
Default : No
Forced : No

Text #1
ID : 5
Format : UTF-8
Codec ID : S_TEXT/UTF8
Codec ID/Info : UTF-8 Plain Text
Duration : 1 h 44 min
Bit rate : 1 b/s
Count of elements : 29
Stream size : 1.04 KiB (0%)
Title : Forced
Language : Russian
Default : Yes
Forced : No

Text #2
ID : 6
Format : UTF-8
Codec ID : S_TEXT/UTF8
Codec ID/Info : UTF-8 Plain Text
Duration : 1 h 55 min
Bit rate : 66 b/s
Count of elements : 1141
Stream size : 55.7 KiB (0%)
Title : Full
Language : Russian
Default : No
Forced : No

Text #3
ID : 7
Format : UTF-8
Codec ID : S_TEXT/UTF8
Codec ID/Info : UTF-8 Plain Text
Duration : 1 h 46 min
Bit rate : 1 b/s
Count of elements : 24
Stream size : 1.04 KiB (0%)
Title : Forced
Language : Ukrainian
Default : No
Forced : No

Text #4
ID : 8
Format : UTF-8
Codec ID : S_TEXT/UTF8
Codec ID/Info : UTF-8 Plain Text
Duration : 1 h 46 min
Bit rate : 0 b/s
Count of elements : 15
Stream size : 420 Bytes (0%)
Title : Forced
Language : English
Default : No
Forced : No

Text #5
ID : 9
Format : UTF-8
Codec ID : S_TEXT/UTF8
Codec ID/Info : UTF-8 Plain Text
Duration : 1 h 48 min
Bit rate : 52 b/s
Count of elements : 1443
Stream size : 42.1 KiB (0%)
Title : Full
Language : English
Default : No
Forced : No

Text #6
ID : 10
Format : UTF-8
Codec ID : S_TEXT/UTF8
Codec ID/Info : UTF-8 Plain Text
Duration : 1 h 55 min
Bit rate : 60 b/s
Count of elements : 1815
Stream size : 51.5 KiB (0%)
Title : SDH
Language : English
Default : No
Forced : No

pb.wtf



Скачать Вуайеристы через торрент https://i1.imageban.ru/out/2021/09/10/2d2ece22b4b968e6bffda617cf0353ff.jpg Скачать, смотреть онлайн Вуайеристы бесплантно в хорошем качестве Описание: Переехав в квартиру своей мечты, Пиппа и Томас замечают, что их окна выходят прямо на квартиру напротив, невольно приглашая их ... 10 10 8
Торрент: Зарегистрирован [2021-09-14 23:33] · скачан: 94 раз
Статус: √ проверено
Размер: 2.67 GB
Как cкачать? Как скачать Вуайеристы через торрент | UTorrent

% Раздел Тема Автор DL S | L
Фильмы (WEB-DL 720p, 1080p) [ 9.01 GB ] Вуайеристы / The Voyeurs [2021 WEB-DL 1080p] MVO [HDRezka Studio] bober100 Скачать
24 | 1
Фильмы 2021 [DVDrip, WEB-DLRip, HDrip] (DUB, MVO) [ 1.45 GB ] Вуайеристы / The Voyeurs [2021 WEB-DLRip] MVO [HDRezka Studio] bober100 Скачать
31 | 0

28-11-2019 20:33  

Отключить всю рекламу на сайте

    Дорогой пользователь! Огромная просьба, поблагодарите релизера, оцените раздачу и оставьте свои комментарий, если Вы скачали Вуайеристы через торрент бесплатно!
    Комментировать посты могут только пользователи прошедшие не сложную регистрацию
    Показать сообщения:    

    Вуайеристы через торрент
    Скачать бесплатно Вуайеристы
    Вуайеристы скачать торрент
    Вуайеристы смотреть онлайн
    Cкачать фильм Вуайеристы бесплатно
    Вуайеристы скачать торрент в хорошем качестве
    Вуайеристы смотреть онлайн бесплатно в хорошем качестве


    Вы не можете начинать темы
    Вы не можете отвечать на сообщения
    Вы не можете редактировать свои сообщения
    Вы не можете удалять свои сообщения
    Вы не можете голосовать в опросах
    Вы не можете прикреплять файлы к сообщениям
    Вы можете скачивать файлы