>

5.6

iTunes

6.1

MVO

5.7

MVO

1

7.4

1 сезон

6.8

iTunes

7.2

1 сезон

13

6.7

1 сезон

8.3

RePack

30

Deluxe

pack

9.9

Лицензия

ВАЖНО

ИГРА 18+

pack

7.3

RePack

MK11

7.7

RePack

jed

7.8

RePack

fifa19

8.5

RePack

RDR2

RePack

NEED FOR SPEED™ PAYBACK

4 сезон

9 сезон

Бесстыжие 9 сезон

Все сериалы

все сериалы на PB.wtf

RePack

FAR CRY 5

Anonymous, доброй ночи, мы катастрофически не успеваем собрать деньги на оплату серверов, помогите нам пожалуйста 5,10,15р., для нас важна любая помощь . В качестве благодарности мы отключим Вам всю рекламу на сайте (укажите свой ник в строку Ваше имя)!

×
  
Magnet ссылка

Полночь на злаковом поле / Midnight in the Switchgrass (Рэндолл Эмметт) [2021, Триллер, детектив, криминал, BDRip 720p] DUB [iTunes] +MVO [HDRezka Studio] pb.wtf

Полночь на злаковом поле через торрент pb.wtf

Раздают: 3 [ 24 KB/s ] Качают: 1 [ 0 KB/s ]
Размер: 4.21 GB | Добавлен: 10 д. назад | Торрент скачан:66 раз
Смотреть онлайн Полночь на злаковом поле | Скачать    Ребята, помогите собрать деньги на оплату серверов!!!

15-09-2021 01:14 Полночь на злаковом поле Скачать торрент  

Полночь на злаковом поле | Midnight in the Switchgrass
Год выпуска: 2021
Страна: США
Студия: BondIt, Emmett/Furla Films, Pimienta, River Bay Films, Verdi Productions
Жанр: Триллер, детектив, криминал
Продолжительность: 01:38:44
Перевод(ы):
#1: Дублированный | iTunes
#2: Профессиональный многоголосый | HDRezka Studio
Субтитры: Русские (Forced, full), английские

Режиссер: Рэндолл Эмметт

rating

В ролях: Меган Фокс, Эмиль Хирш, Брюс Уиллис, Лукас Хаас, Кэйтлин Кармайкл, Олив Элиз Аберкромби, Jason Trawick, Лидия Халл, Уэлкер Уайт, Алек Монополи

Описание: Пенсакола, 2004 год. Два агента ФБР пытаются накрыть сеть торговцев людьми, когда выясняется, что их дело пересекается с многолетним безрезультатным расследованием серийных убийств молодых женщин. И хотя полицейский начальник слышать не хочет об официальном взаимодействии, ФРБ-ровцы объединяют усилия с местным детективом.

Качество: BDRip 720p
Формат: MKV

Видео: MPEG-4 AVC, 1280x536, 4658 Кbit/s, 23.976 fps
Аудио #01: 48 kHz, AC3, 5.1, 384 Kbps | Дублированный | iTunes | RUS |
Аудио #02: 48 kHz, AC3, 5.1, 448 Kbps | Профессиональный многоголосый | HDRezka Studio | RUS |
Аудио #03: 48 kHz, AC3, 5.1, 640 Kbps | Оригинал | ENG |
скриншот  скриншот  скриншот  скриншот  скриншот  

General
Unique ID : 30645510513878544624657685960148220822 (0x170E1C52A3964DF1287BFA0F1A257B96)
Complete name : E:VideoMidnight.in.the.Switchgrass.2021.BDRip.720p.seleZen.mkv
Format : Matroska
Format version : Version 4
File size : 4.21 GiB
Duration : 1 h 38 min
Overall bit rate : 6 099 kb/s
Movie name : Midnight in the Switchgrass 2021 from seleZen
Encoded date : UTC 2021-09-14 23:28:05
Writing application : mkvmerge v59.0.0 ('Shining Star') 64-bit
Writing library : libebml v1.4.2 + libmatroska v1.6.4

Video
ID : 1
Format : AVC
Format/Info : Advanced Video Codec
Format profile : High@L4.1
Format settings : CABAC / 12 Ref Frames
Format settings, CABAC : Yes
Format settings, Reference : 12 frames
Codec ID : V_MPEG4/ISO/AVC
Duration : 1 h 38 min
Bit rate : 4 658 kb/s
Width : 1 280 pixels
Height : 536 pixels
Display aspect ratio : 2.40:1
Frame rate mode : Constant
Frame rate : 23.976 (24000/1001) FPS
Color space : YUV
Chroma subsampling : 4:2:0
Bit depth : 8 bits
Scan type : Progressive
Bits/(Pixel*Frame) : 0.283
Stream size : 3.19 GiB (76%)
Writing library : x264 core 146 -from seleZen
Encoding settings : cabac=1 / ref=12 / deblock=1:-2:-2 / analyse=0x3:0x133 / me=umh / subme=11 / psy=1 / psy_rd=1.05:0.03 / mixed_ref=1 / me_range=48 / chroma_me=1 / trellis=2 / 8x8dct=1 / cqm=0 / deadzone=21,11 / fast_pskip=0 / chroma_qp_offset=-3 / threads=36 / lookahead_threads=4 / sliced_threads=0 / nr=0 / decimate=0 / interlaced=0 / bluray_compat=0 / constrained_intra=0 / bframes=8 / b_pyramid=2 / b_adapt=2 / b_bias=0 / direct=3 / weightb=1 / open_gop=0 / weightp=2 / keyint=240 / keyint_min=23 / scenecut=40 / intra_refresh=0 / rc_lookahead=50 / rc=2pass / mbtree=0 / bitrate=4658 / ratetol=1.0 / qcomp=0.60 / qpmin=0 / qpmax=51 / qpstep=4 / cplxblur=20.0 / qblur=0.5 / vbv_maxrate=50000 / vbv_bufsize=62500 / nal_hrd=none / filler=0 / ip_ratio=1.40 / pb_ratio=1.30 / aq=3:0.80
Language : English
Default : Yes
Forced : No

Audio #1
ID : 2
Format : AC-3
Format/Info : Audio Coding 3
Commercial name : Dolby Digital
Codec ID : A_AC3
Duration : 1 h 38 min
Bit rate mode : Constant
Bit rate : 384 kb/s
Channel(s) : 6 channels
Channel layout : L R C LFE Ls Rs
Sampling rate : 48.0 kHz
Frame rate : 31.250 FPS (1536 SPF)
Compression mode : Lossy
Stream size : 271 MiB (6%)
Title : Dub [iTunes]
Language : Russian
Service kind : Complete Main
Default : Yes
Forced : Yes

Audio #2
ID : 3
Format : AC-3
Format/Info : Audio Coding 3
Commercial name : Dolby Digital
Codec ID : A_AC3
Duration : 1 h 38 min
Bit rate mode : Constant
Bit rate : 448 kb/s
Channel(s) : 6 channels
Channel layout : L R C LFE Ls Rs
Sampling rate : 48.0 kHz
Frame rate : 31.250 FPS (1536 SPF)
Compression mode : Lossy
Stream size : 316 MiB (7%)
Title : MVO [HDRezka Studio]
Language : Russian
Service kind : Complete Main
Default : No
Forced : No

Audio #3
ID : 4
Format : AC-3
Format/Info : Audio Coding 3
Commercial name : Dolby Digital
Codec ID : A_AC3
Duration : 1 h 38 min
Bit rate mode : Constant
Bit rate : 640 kb/s
Channel(s) : 6 channels
Channel layout : L R C LFE Ls Rs
Sampling rate : 48.0 kHz
Frame rate : 31.250 FPS (1536 SPF)
Compression mode : Lossy
Stream size : 452 MiB (10%)
Title : Original
Language : English
Service kind : Complete Main
Default : No
Forced : No

Text #1
ID : 5
Format : UTF-8
Codec ID : S_TEXT/UTF8
Codec ID/Info : UTF-8 Plain Text
Duration : 1 h 17 min
Bit rate : 3 b/s
Count of elements : 45
Stream size : 2.11 KiB (0%)
Title : Forced [HDrezka Studio]
Language : Russian
Default : No
Forced : No

Text #2
ID : 6
Format : UTF-8
Codec ID : S_TEXT/UTF8
Codec ID/Info : UTF-8 Plain Text
Duration : 1 h 33 min
Bit rate : 74 b/s
Count of elements : 900
Stream size : 50.6 KiB (0%)
Title : Full [milf2010]
Language : Russian
Default : No
Forced : No

Text #3
ID : 7
Format : UTF-8
Codec ID : S_TEXT/UTF8
Codec ID/Info : UTF-8 Plain Text
Duration : 1 h 29 min
Bit rate : 50 b/s
Count of elements : 1020
Stream size : 32.6 KiB (0%)
Title : Full
Language : English
Default : No
Forced : No

Text #4
ID : 8
Format : UTF-8
Codec ID : S_TEXT/UTF8
Codec ID/Info : UTF-8 Plain Text
Duration : 1 h 30 min
Bit rate : 57 b/s
Count of elements : 1201
Stream size : 38.5 KiB (0%)
Title : SDH
Language : English
Default : No
Forced : No

Menu
00:00:00.000 : Chapter 01
00:06:15.875 : Chapter 02
00:08:55.743 : Chapter 03
00:16:05.881 : Chapter 04
00:22:47.616 : Chapter 05
00:31:44.485 : Chapter 06
00:36:17.884 : Chapter 07
00:41:29.320 : Chapter 08
00:48:01.169 : Chapter 09
00:53:08.685 : Chapter 10
01:00:19.324 : Chapter 11
01:04:29.615 : Chapter 12
01:10:20.674 : Chapter 13
01:18:24.116 : Chapter 14
01:23:52.444 : Chapter 15
01:29:51.969 : Chapter 16

pb.wtf



Скачать Полночь на злаковом поле через торрент https://c.radikal.ru/c25/2109/ad/f9e2016a815a.jpg Скачать, смотреть онлайн Полночь на злаковом поле бесплантно в хорошем качестве Описание: Пенсакола, 2004 год. Два агента ФБР пытаются накрыть сеть торговцев людьми, когда выясняется, что их дело пересекается с ... 10 10 5
Торрент: Зарегистрирован [2021-09-15 01:14] · скачан: 66 раз
Статус: √ проверено
Размер: 4.21 GB
Как cкачать? Как скачать Полночь на злаковом поле через торрент | UTorrent

% Раздел Тема Автор DL S | L
Фильмы [HD 720p, 1080p] (Хороший звук DUB, MVO) [ 7.98 GB ] Полночь на злаковом поле / Midnight in the Switchgrass [2021 BDRip 1080p] +MVO [HDRezka Studio] bober100 Скачать
3 | 1
Фильмы 2021 [DVDrip, WEB-DLRip, HDrip] (DUB, MVO) [ 742 MB ] Полночь на злаковом поле / Midnight in the Switchgrass [2021 HDRip] bober100 Скачать
1 | 0
Фильмы 2021 [DVDrip, WEB-DLRip, HDrip] (DUB, MVO) [ 1.41 GB ] Полночь на злаковом поле / Midnight in the Switchgrass [2021 HDRip-AVC] bober100 Скачать
8 | 0
Фильмы (Blu-ray, BD-Remux, HDDVD) [ 21.73 GB ] Полночь на злаковом поле / Midnight in the Switchgrass [2021 BD Remux 1080p] +MVO [HDRezka Studio] bober100 Скачать
2 | 0
Фильмы (Blu-ray, BD-Remux, HDDVD) [ 20.23 GB ] Полночь на злаковом поле / Midnight in the Switchgrass [2021 BD Remux 1080p] bober100 Скачать
4 | 0
Фильмы [HD 720p, 1080p] (Хороший звук DUB, MVO) [ 11.22 GB ] Полночь на злаковом поле / Midnight in the Switchgrass [2021 BDRip 1080p] bober100 Скачать
3 | 0
Фильмы [HD 720p, 1080p] (Хороший звук DUB, MVO) [ 4.24 GB ] Полночь на злаковом поле / Midnight in the Switchgrass [2021 BDRip 720p] bober100 Скачать
2 | 0

28-11-2019 20:33  

Отключить всю рекламу на сайте

    Дорогой пользователь! Огромная просьба, поблагодарите релизера, оцените раздачу и оставьте свои комментарий, если Вы скачали Полночь на злаковом поле через торрент бесплатно!
    Комментировать посты могут только пользователи прошедшие не сложную регистрацию
    Показать сообщения:    

    Полночь на злаковом поле через торрент
    Скачать бесплатно Полночь на злаковом поле
    Полночь на злаковом поле скачать торрент
    Полночь на злаковом поле смотреть онлайн
    Cкачать фильм Полночь на злаковом поле бесплатно
    Полночь на злаковом поле скачать торрент в хорошем качестве
    Полночь на злаковом поле смотреть онлайн бесплатно в хорошем качестве


    Вы не можете начинать темы
    Вы не можете отвечать на сообщения
    Вы не можете редактировать свои сообщения
    Вы не можете удалять свои сообщения
    Вы не можете голосовать в опросах
    Вы не можете прикреплять файлы к сообщениям
    Вы можете скачивать файлы