Присоединяйтесь к нам в Telegram!, здесь всегда актуальный адрес сайта, оперативная поддержка и многое другое!!

>

5.9

iTunes

7.4

iTunes

9.4

1 сезон

1

7.4

2 сезон

7.2

iTunes

7.3

1 сезон

13

6.1

iTunes

8.3

GOG

30

ULTIMATE

pack

9.9

Лицензия

ВАЖНО

ИГРА 18+

pack

7.3

RePack

MK11

7.7

RePack

jed

7.8

RePack

fifa19

8.5

RePack

RDR2

RePack

NEED FOR SPEED™ PAYBACK

5 сезон

9 сезон

Бесстыжие 9 сезон

Все сериалы

все сериалы на PB.wtf

RePack

FAR CRY 5

Anonymous, добрый вечер, мы катастрофически не успеваем собрать деньги на оплату серверов, помогите нам пожалуйста 5,10,15р., для нас важна любая помощь . В качестве благодарности мы отключим Вам всю рекламу на сайте (укажите свой ник в строку Ваше имя)!

×
  
Magnet ссылка

Полночь на злаковом поле / Midnight in the Switchgrass (Рэндолл Эмметт) [2021, Триллер, детектив, криминал, HDRip-AVC] DUB [iTunes] pb.wtf

Полночь на злаковом поле через торрент pb.wtf

Раздают: 1 [ 5 KB/s ]
Размер: 1.41 GB | Добавлен: 2 мес. 15 д. назад | Торрент скачан:111 раз
Смотреть онлайн Полночь на злаковом поле | Скачать    Ребята, помогите собрать деньги на оплату серверов!!!

15-09-2021 06:44 Полночь на злаковом поле Скачать торрент  

Полночь на злаковом поле | Midnight in the Switchgrass
Год выпуска: 2021
Страна: США
Студия: BondIt, Emmett/Furla Films, Pimienta, River Bay Films, Verdi Productions
Жанр: Триллер, детектив, криминал
Продолжительность: 01:38:44
Перевод: Дублированный | iTunes
Субтитры: Русские (Forced), английские

Режиссер: Рэндолл Эмметт

rating

В ролях: Меган Фокс, Эмиль Хирш, Брюс Уиллис, Лукас Хаас, Кэйтлин Кармайкл, Олив Элиз Аберкромби, Jason Trawick, Лидия Халл, Уэлкер Уайт, Алек Монополи

Описание: Пенсакола, 2004 год. Два агента ФБР пытаются накрыть сеть торговцев людьми, когда выясняется, что их дело пересекается с многолетним безрезультатным расследованием серийных убийств молодых женщин. И хотя полицейский начальник слышать не хочет об официальном взаимодействии, ФРБ-ровцы объединяют усилия с местным детективом.

Качество: HDRip-AVC
Формат: MKV

Видео: 1024x428 at 23.976 fps, x264@L4.1, ~1656 kbps, 0.158 bpp
Аудио: AC3, 48 kHz, 6 ch, ~384.00 kbps avg | русский | iTunes
скриншот  скриншот  скриншот  скриншот  скриншот  

x264 [info]: frame I:1007 Avg QP:14.89 size: 51549
x264 [info]: frame P:29933 Avg QP:16.83 size: 19579
x264 [info]: frame B:111093 Avg QP:18.58 size: 5276

General
Unique ID : 70947499122703557065244490626037368192 (0x355FFDC618FF52686760F79D2562C580)
Complete name : K:Midnight.in.the.Switchgrass.(2021).HDRip-AVC.mkv
Format : Matroska
Format version : Version 4
File size : 1.41 GiB
Duration : 1 h 38 min
Overall bit rate : 2 039 kb/s
Encoded date : UTC 2021-09-15 06:38:36
Writing application : mkvmerge v61.0.0 ('So') 64-bit
Writing library : libebml v1.4.2 + libmatroska v1.6.4
Cover : Yes
Attachments : Cover.jpg / Cover 2.jpg

Video
ID : 1
Format : AVC
Format/Info : Advanced Video Codec
Format profile : High@L4.1
Format settings : CABAC / 12 Ref Frames
Format settings, CABAC : Yes
Format settings, Reference : 12 frames
Codec ID : V_MPEG4/ISO/AVC
Duration : 1 h 38 min
Bit rate : 1 656 kb/s
Width : 1 024 pixels
Height : 428 pixels
Display aspect ratio : 2.40:1
Frame rate mode : Constant
Frame rate : 23.976 (24000/1001) FPS
Color space : YUV
Chroma subsampling : 4:2:0
Bit depth : 8 bits
Scan type : Progressive
Bits/(Pixel*Frame) : 0.158
Stream size : 1.14 GiB (81%)
Title : -=DoMiNo=-
Writing library : x264 core 164 r3065+55M 280faca t_mod_New [(8 & 10)-bit@all X86_64]
Encoding settings : cabac=1 / ref=12 / deblock=1:-3:-2 / analyse=0x3:0x133 / me=umh / subme=10 / psy=1 / fade_compensate=0.00 / psy_rd=1.05:0.05 / mixed_ref=1 / me_range=48 / chroma_me=1 / trellis=2 / 8x8dct=1 / cqm=0 / deadzone=21,11 / fast_pskip=0 / chroma_qp_offset=-3 / threads=24 / lookahead_threads=3 / sliced_threads=0 / nr=0 / decimate=0 / interlaced=0 / bluray_compat=0 / constrained_intra=0 / fgo=0 / bframes=11 / b_pyramid=2 / b_adapt=2 / b_bias=0 / direct=3 / weightb=1 / open_gop=0 / weightp=2 / keyint=240 / keyint_min=23 / scenecut=40 / intra_refresh=0 / rc_lookahead=60 / rc=2pass / mbtree=0 / bitrate=1656 / ratetol=1.0 / qcomp=0.65 / qpmin=0:0:0 / qpmax=69:69:69 / qpstep=4 / cplxblur=20.0 / qblur=0.5 / vbv_maxrate=50000 / vbv_bufsize=62500 / nal_hrd=none / filler=0 / ip_ratio=1.20 / pb_ratio=1.30 / aq=3:0.80 / aq-sensitivity=10.00 / aq-factor=1.00:1.00:1.00 / aq2=0 / aq3=0
Language : English
Default : Yes
Forced : No
Color range : Limited
Color primaries : BT.709
Transfer characteristics : BT.709
Matrix coefficients : BT.709

Audio
ID : 2
Format : AC-3
Format/Info : Audio Coding 3
Commercial name : Dolby Digital
Codec ID : A_AC3
Duration : 1 h 38 min
Bit rate mode : Constant
Bit rate : 384 kb/s
Channel(s) : 6 channels
Channel layout : L R C LFE Ls Rs
Sampling rate : 48.0 kHz
Frame rate : 31.250 FPS (1536 SPF)
Compression mode : Lossy
Stream size : 271 MiB (19%)
Title : DUB
Language : Russian
Service kind : Complete Main
Default : Yes
Forced : Yes

Text #1
ID : 3
Format : UTF-8
Codec ID : S_TEXT/UTF8
Codec ID/Info : UTF-8 Plain Text
Duration : 1 h 17 min
Bit rate : 3 b/s
Count of elements : 45
Stream size : 2.11 KiB (0%)
Language : Russian
Default : No
Forced : Yes

Text #2
ID : 4
Format : UTF-8
Codec ID : S_TEXT/UTF8
Codec ID/Info : UTF-8 Plain Text
Duration : 1 h 29 min
Bit rate : 50 b/s
Count of elements : 1020
Stream size : 32.6 KiB (0%)
Language : English
Default : No
Forced : No

Menu
00:00:00.000 : Chapter 01
00:06:15.875 : Chapter 02
00:08:55.744 : Chapter 03
00:16:05.882 : Chapter 04
00:22:47.616 : Chapter 05
00:31:44.486 : Chapter 06
00:36:17.884 : Chapter 07
00:41:29.320 : Chapter 08
00:48:01.170 : Chapter 09
00:53:08.685 : Chapter 10
01:00:19.324 : Chapter 11
01:04:29.616 : Chapter 12
01:10:20.675 : Chapter 13
01:18:24.116 : Chapter 14
01:23:52.444 : Chapter 15
01:29:51.970 : Chapter 16

pb.wtf



Скачать Полночь на злаковом поле через торрент https://c.radikal.ru/c08/2109/75/b9d39b7f4c97.png Скачать, смотреть онлайн Полночь на злаковом поле бесплантно в хорошем качестве Описание: Пенсакола, 2004 год. Два агента ФБР пытаются накрыть сеть торговцев людьми, когда выясняется, что их дело пересекается с ... 10 10 6
Торрент: Зарегистрирован [2021-09-15 09:19] · скачан: 111 раз
Статус: √ проверено
Размер: 1.41 GB
Как cкачать? Как скачать Полночь на злаковом поле через торрент | UTorrent

% Раздел Тема Автор DL S | L
Фильмы [HD 720p, 1080p] (Хороший звук DUB, MVO) [ 7.98 GB ] Полночь на злаковом поле / Midnight in the Switchgrass [2021 BDRip 1080p] +MVO [HDRezka Studio] bober100 Скачать
2 | 0
Фильмы 2021 [DVDrip, WEB-DLRip, HDrip] (DUB, MVO) [ 742 MB ] Полночь на злаковом поле / Midnight in the Switchgrass [2021 HDRip] bober100 Скачать
1 | 0
Фильмы [HD 720p, 1080p] (Хороший звук DUB, MVO) [ 4.21 GB ] Полночь на злаковом поле / Midnight in the Switchgrass [2021 BDRip 720p] +MVO [HDRezka Studio] bober100 Скачать
4 | 0
Фильмы (Blu-ray, BD-Remux, HDDVD) [ 21.73 GB ] Полночь на злаковом поле / Midnight in the Switchgrass [2021 BD Remux 1080p] +MVO [HDRezka Studio] bober100 Скачать
1 | 0
Фильмы (Blu-ray, BD-Remux, HDDVD) [ 20.23 GB ] Полночь на злаковом поле / Midnight in the Switchgrass [2021 BD Remux 1080p] bober100 Скачать
1 | 0
Фильмы [HD 720p, 1080p] (Хороший звук DUB, MVO) [ 11.22 GB ] Полночь на злаковом поле / Midnight in the Switchgrass [2021 BDRip 1080p] bober100 Скачать
1 | 0
Фильмы [HD 720p, 1080p] (Хороший звук DUB, MVO) [ 4.24 GB ] Полночь на злаковом поле / Midnight in the Switchgrass [2021 BDRip 720p] bober100 Скачать
1 | 0

28-11-2019 20:33  

Отключить всю рекламу на сайте

    Дорогой пользователь! Огромная просьба, поблагодарите релизера, оцените раздачу и оставьте свои комментарий, если Вы скачали Полночь на злаковом поле через торрент бесплатно!
    Комментировать посты могут только пользователи прошедшие не сложную регистрацию
    Показать сообщения:    

    Полночь на злаковом поле через торрент
    Скачать бесплатно Полночь на злаковом поле
    Полночь на злаковом поле скачать торрент
    Полночь на злаковом поле смотреть онлайн
    Cкачать фильм Полночь на злаковом поле бесплатно
    Полночь на злаковом поле скачать торрент в хорошем качестве
    Полночь на злаковом поле смотреть онлайн бесплатно в хорошем качестве


    Вы не можете начинать темы
    Вы не можете отвечать на сообщения
    Вы не можете редактировать свои сообщения
    Вы не можете удалять свои сообщения
    Вы не можете голосовать в опросах
    Вы не можете прикреплять файлы к сообщениям
    Вы можете скачивать файлы