Достать ножи: Стеклянная луковица

MVO

Добыча

Дубляж

Уэнсдэй

1 сезон

Тор

Дубляж

13 клиническая

1 сезон

Жестокая ночь

MVO

Одни из нас

1 сезон

Deluxe

pack

Рекомендуем

30

Пиратка

ВАЖНО

ВАЖНО

Ghostwire

Пиратка

jed

RePack

nioh2

RePack

RDR2

RePack

NEED FOR SPEED™ PAYBACK

RePack

скачать торрент

Кинопоиск HD

Острые козырьки 6 сезон

6 сезон

FAR CRY 6

RePack

скачать торрент

Лицензия

скачать торрент

MVO

1

1 сезон

скачать торрент

1 сезон

скачать торрент

Лицензия

  

Ночные тетради / Nightbooks (Дэвид Яровески) [2021, Фэнтези, семейный, приключения, WEB-DLRip-AVC] Дубляж [Netflix]

Ночные тетради через торрент pb.wtf

Размер: 1.87 GB | Добавлен: 1 год 4 мес. назад | Торрент скачан:58 раз
Смотреть онлайн | Скачать | Поддержите нас   

15-09-2021 10:25 Ночные тетради Скачать торрент  

Ночные тетради | Nightbooks
Год выпуска: 2021
Страна: США
Студия: Catchlight Studios, Ghost House Pictures, MXN Entertainment, Netflix
Жанр: Фэнтези, семейный, приключения
Продолжительность: 01:43:11
Перевод: Дублированный | Netflix
Субтитры: Русские (Forced, full), украинские (Full), английские

Режиссер: Дэвид Яровески

rating

В ролях: Кристен Риттер, Уинслоу Фегли, Лидия Джюэтт, Джесс Браун, Хийла Айнне, Майли Хейк, Люкстон Хэндспайкер, Лиам Кувион, Тейлор Белль Путермэн

Описание: Алекс попадает в плен к злой ведьме, которая жаждет его съесть. Чтобы избежать верной смерти, мальчик предлагает ведьме хитрую сделку: каждую ночь он будет рассказывать ведьме одну страшную историю. Большой любитель страшилок, Алекс знает массу ужасных сказок, которые он записывает в свои специальные ночные тетради. Встретив в логове ведьмы другую пленницу, Ясмин, Алекс объединяется с ней, чтобы вместе найти выход из волшебного дома-лабиринта.

Качество: WEB-DLRip-AVC
Формат: MKV

Видео: MPEG-4 AVC, 1024x426 at 23.976 fps, [email protected], ~1700 kbps, 0.163 bpp
Аудио #01: 48 kHz, AC3, 5.1, 448 Kbps | Дублированный | Netflix | RUS |
Аудио #02: 48 kHz, AC3, 5.1, 448 Kbps | Оригинал | ENG |
скриншот  скриншот  скриншот  скриншот  скриншот  

x264 [info]: frame I:1715 Avg QP:13.22 size: 65203
x264 [info]: frame P:29496 Avg QP:15.85 size: 20454
x264 [info]: frame B:117232 Avg QP:18.04 size: 5108
x264 [info]: consecutive B-frames: 3.0% 2.7% 6.5% 10.9% 14.4% 34.5% 9.6% 2.7% 3.2% 3.0% 2.6% 2.0% 0.5%

General
Unique ID : 276069018220943752621609413721624906282 (0xCFB0F579E041363606CF8EAE01478A2A)
Complete name : I:Nightbooks.(2021).WEB-DLRip-AVC.mkv
Format : Matroska
Format version : Version 4
File size : 1.87 GiB
Duration : 1 h 43 min
Overall bit rate : 2 596 kb/s
Encoded date : UTC 2021-09-15 09:44:15
Writing application : mkvmerge v61.0.0 ('So') 64-bit
Writing library : libebml v1.4.2 + libmatroska v1.6.4
Cover : Yes
Attachments : Cover.jpg / Cover 2.jpg

Video
ID : 1
Format : AVC
Format/Info : Advanced Video Codec
Format profile : [email protected]
Format settings : CABAC / 12 Ref Frames
Format settings, CABAC : Yes
Format settings, Reference : 12 frames
Codec ID : V_MPEG4/ISO/AVC
Duration : 1 h 43 min
Bit rate : 1 700 kb/s
Width : 1 024 pixels
Height : 426 pixels
Display aspect ratio : 2.40:1
Frame rate mode : Constant
Frame rate : 23.976 (24000/1001) FPS
Color space : YUV
Chroma subsampling : 4:2:0
Bit depth : 8 bits
Scan type : Progressive
Bits/(Pixel*Frame) : 0.163
Stream size : 1.22 GiB (65%)
Title : -=DoMiNo=-
Writing library : x264 core 164 r3065+55M 280faca t_mod_New [(8 & 10)[email protected] X86_64]
Encoding settings : cabac=1 / ref=12 / deblock=1:-3:-2 / analyse=0x3:0x133 / me=umh / subme=10 / psy=1 / fade_compensate=0.00 / psy_rd=1.00:0.15 / mixed_ref=1 / me_range=32 / chroma_me=1 / trellis=2 / 8x8dct=1 / cqm=0 / deadzone=21,11 / fast_pskip=0 / chroma_qp_offset=-3 / threads=24 / lookahead_threads=3 / sliced_threads=0 / nr=0 / decimate=0 / interlaced=0 / bluray_compat=0 / constrained_intra=0 / fgo=0 / bframes=12 / b_pyramid=2 / b_adapt=2 / b_bias=0 / direct=3 / weightb=1 / open_gop=0 / weightp=2 / keyint=240 / keyint_min=23 / scenecut=40 / intra_refresh=0 / rc_lookahead=60 / rc=2pass / mbtree=0 / bitrate=1700 / ratetol=1.0 / qcomp=0.65 / qpmin=0:0:0 / qpmax=69:69:69 / qpstep=4 / cplxblur=20.0 / qblur=0.5 / vbv_maxrate=50000 / vbv_bufsize=62500 / nal_hrd=none / filler=0 / ip_ratio=1.24 / pb_ratio=1.30 / aq=1:1.00 / aq-sensitivity=10.00 / aq-factor=1.00:1.00:1.00 / aq2=0 / aq3=0
Language : English
Default : Yes
Forced : No

Audio #1
ID : 2
Format : AC-3
Format/Info : Audio Coding 3
Commercial name : Dolby Digital
Codec ID : A_AC3
Duration : 1 h 43 min
Bit rate mode : Constant
Bit rate : 448 kb/s
Channel(s) : 6 channels
Channel layout : L R C LFE Ls Rs
Sampling rate : 48.0 kHz
Frame rate : 31.250 FPS (1536 SPF)
Compression mode : Lossy
Stream size : 331 MiB (17%)
Title : Дубляж
Language : Russian
Service kind : Complete Main
Default : Yes
Forced : Yes

Audio #2
ID : 3
Format : AC-3
Format/Info : Audio Coding 3
Commercial name : Dolby Digital
Codec ID : A_AC3
Duration : 1 h 43 min
Bit rate mode : Constant
Bit rate : 448 kb/s
Channel(s) : 6 channels
Channel layout : L R C LFE Ls Rs
Sampling rate : 48.0 kHz
Frame rate : 31.250 FPS (1536 SPF)
Compression mode : Lossy
Stream size : 331 MiB (17%)
Language : English
Service kind : Complete Main
Default : No
Forced : No

Text #1
ID : 4
Format : UTF-8
Codec ID : S_TEXT/UTF8
Codec ID/Info : UTF-8 Plain Text
Duration : 1 h 40 min
Bit rate : 1 b/s
Count of elements : 30
Stream size : 971 Bytes (0%)
Title : Forced
Language : Russian
Default : Yes
Forced : No

Text #2
ID : 5
Format : UTF-8
Codec ID : S_TEXT/UTF8
Codec ID/Info : UTF-8 Plain Text
Duration : 1 h 40 min
Bit rate : 56 b/s
Count of elements : 1064
Stream size : 41.8 KiB (0%)
Language : Russian
Default : No
Forced : No

Text #3
ID : 6
Format : UTF-8
Codec ID : S_TEXT/UTF8
Codec ID/Info : UTF-8 Plain Text
Duration : 1 h 40 min
Bit rate : 59 b/s
Count of elements : 986
Stream size : 43.3 KiB (0%)
Language : Ukrainian
Default : No
Forced : No

Text #4
ID : 7
Format : UTF-8
Codec ID : S_TEXT/UTF8
Codec ID/Info : UTF-8 Plain Text
Duration : 1 h 35 min
Bit rate : 59 b/s
Count of elements : 1514
Stream size : 41.5 KiB (0%)
Language : English
Default : No
Forced : No




Скачать Ночные тетради через торрент https://d.radikal.ru/d28/2109/c0/3db48e079f59.jpg Скачать, смотреть онлайн Ночные тетради бесплантно в хорошем качестве Описание: Алекс попадает в плен к злой ведьме, которая жаждет его съесть. Чтобы избежать верной смерти, мальчик предлагает ведьме хитрую ... 10 10 5
Торрент: Зарегистрирован [2021-09-15 10:25] · скачан: 58 раз
Статус: √ проверено
Размер: 1.87 GB
Как cкачать? Как скачать Ночные тетради через торрент | UTorrent

% Раздел Тема Автор DL S | L
Фильмы 2021 [DVDrip, WEB-DLRip, HDrip] (DUB, MVO) [ 743 MB ] Ночные тетради / Nightbooks | DUB | DLRip bober100 Скачать
1 | 0
Фильмы 2021 [DVDrip, WEB-DLRip, HDrip] (DUB, MVO) [ 2.2 GB ] Ночные тетради / Nightbooks | DUB | DLRip-AVC Lithuania Скачать
1 | 0
Фильмы 2021 [DVDrip, WEB-DLRip, HDrip] (DUB, MVO) [ 1.46 GB ] Ночные тетради / Nightbooks | DUB | DLRip bober100 Скачать
16 | 0
Фильмы (WEB-DL 720p, 1080p) [ 2.15 GB ] Ночные тетради / Nightbooks | DUB | 720p bober100 Скачать
1 | 0
Фильмы (WEB-DL 720p, 1080p) [ 4.48 GB ] Ночные тетради / Nightbooks | DUB | 1080p bober100 Скачать
1 | 0
Фильмы (WEB-DL 720p, 1080p) [ 3.65 GB ] Ночные тетради / Nightbooks | DUB | 1080p bober100 Скачать
3 | 0

28-11-2019 20:33  


Отключить вcю реклaмy на сайте, в т.ч. и в плеере онлайн просмотра!

    Дорогой пользователь! Огромная просьба, поблагодарите релизера, оцените раздачу и оставьте свои комментарий, если Вы скачали Ночные тетради через торрент бесплатно!!
    Комментировать посты могут только пользователи прошедшие не сложную регистрацию
    Показать сообщения:    


    Ночные тетради через торрент
    Скачать бесплатно Ночные тетради
    Ночные тетради скачать торрент
    Ночные тетради смотреть онлайн
    Cкачать фильм Ночные тетради бесплатно
    Ночные тетради скачать торрент в хорошем качестве
    Ночные тетради смотреть онлайн бесплатно в хорошем качестве
    Вы не можете начинать темы
    Вы не можете отвечать на сообщения
    Вы не можете редактировать свои сообщения
    Вы не можете удалять свои сообщения
    Вы не можете голосовать в опросах
    Вы не можете прикреплять файлы к сообщениям
    Вы можете скачивать файлы
    Ночные тетради / Nightbooks [2021, Фэнтези, семейный, приключения, WEB-DLRip-AVC] Дубляж [Netflix] смотреть онлайн, скачать торрент picoco.icu