Anonymous, доброй ночи, присоединяйтесь к нам в Telegram!, здесь всегда актуальный адрес сайта, оперативная поддержка и многое другое!

>

5.6

iTunes

7.4

MVO

5.7

MVO

1

7.7

1 сезон

6.8

iTunes

7.3

1 сезон

13

6.7

1 сезон

8.3

RePack

30

ULTIMATE

pack

9.9

Лицензия

ВАЖНО

ИГРА 18+

pack

7.3

RePack

MK11

7.7

RePack

jed

7.8

RePack

fifa19

8.5

RePack

RDR2

RePack

NEED FOR SPEED™ PAYBACK

4 сезон

9 сезон

Бесстыжие 9 сезон

Все сериалы

все сериалы на PB.wtf

RePack

FAR CRY 5

Anonymous, доброй ночи, мы катастрофически не успеваем собрать деньги на оплату серверов, помогите нам пожалуйста 5,10,15р., для нас важна любая помощь . В качестве благодарности мы отключим Вам всю рекламу на сайте (укажите свой ник в строку Ваше имя)!

×
  
Magnet ссылка

Гремлины: Дилогия / Gremlins: Dilogy (Джо Данте) [1984-1990, ужасы, фэнтези, комедия, BDRip - HEVC 1080p 10 bit 60 FPS, DUB] pb.wtf

Гремлины: Дилогия через торрент pb.wtf

Раздают: 3 [ 0 KB/s ]
Размер: 8.1 GB | Добавлен: 1 мес. назад | Торрент скачан:31 раз
Смотреть онлайн Гремлины: Дилогия | Скачать    Ребята, помогите собрать деньги на оплату серверов!!!

15-09-2021 12:28 Гремлины: Дилогия Скачать торрент  



«Гре́млины» (англ. Gremlins) — американский фантастический комедийный фильм ужасов 1984 года, снятый режиссёром Джо Данте по сценарию Криса Коламбуса для студии Warner Bros. Исполнительный продюсер фильма — Стивен Спилберг. Фильм стал успешным в плане кассовых сборов и получил благоприятные отзывы со стороны критиков. Несколько лет спустя был выпущен фильм-продолжение.

Gremlins
«Мы здесь!»


Год выпуска: 1984
Страна: США
Жанр: Ужасы, фэнтези, комедия

Продолжительность: 01:46:15
Перевод: Дублированный | Варус-видео
Субтитры: русские |

Режиссер: Джо Данте
В ролях: Зак Гэллиган, Фиби Кейтс, Хойт Экстон, Френсис Ли МакКейн, Кей Люк, Кори Фельдман, Полли Холлидей, Дик Миллер, Скотт Брейди, Джеки Джозеф, Джон Луи, Дон Стил, Сьюзэн Бургесс, Арни Мур, Гарри Кэри мл., Джадж Райнхолд

Описание:
Очаровательный пушистый зверек Магвай способен растрогать даже камень. Вдобавок, у него – абсолютный слух. Только будьте осторожны: он может погибнуть от солнечного света, на него нельзя брызгать водой, а что будет, если накормить его после полуночи, просто страшно представить.

Мировая премьера: 8 июня 1984


Качество: BDRip 1080p Rip by DD2D3
Формат: MKV
Видео: V_MPEGH/ISO/HEVC; 1920x1080 (16:9); 5001 Kbps; 59,940 fps; 0,040 bpp
Аудио: русский; AC3; 448 Kbps; CBR; 6 ch ||
Навигация по главам: есть



Общее
Уникальный идентификатор : 190351291016380165417593453551784432974 (0x8F34533BDBD4FAA88C69806ED3D2154E)
Полное имя : D:\Gremlins Dilogy (1984-1990) BDRip - HEVC 1080p 10 bit 60 FPS\Gremlins (1984) BDRip - HEVC 1080p 10 bit 60 FPS.mkv
Формат : Matroska
Версия формата : Version 4
Размер файла : 4,05 Гбайт
Продолжительность : 1 ч. 46 м.
Общий поток : 5 456 Кбит/сек
Название фильма : Rip by from DD2D3
Дата кодирования : UTC 2021-09-15 10:58:37
Программа кодирования : mkvmerge v10.0.0 ('To Drown In You') 32bit
Библиотека кодирования : libebml v1.3.4 + libmatroska v1.4.5
Attachments : poster

Видео
Идентификатор : 1
Формат : HEVC
Формат/Информация : High Efficiency Video Coding
Профиль формата : Main 10@L4.1@Main
Идентификатор кодека : V_MPEGH/ISO/HEVC
Продолжительность : 1 ч. 46 м.
Битрейт : 5 002 Кбит/сек
Ширина : 1 920 пикселей
Высота : 1 080 пикселей
Соотношение сторон : 16:9
Режим частоты кадров : Постоянный
Частота кадров : 59,940 (60000/1001) кадров/сек
Цветовое пространство : YUV
Субдискретизация насыщенности : 4:2:0
Битовая глубина : 10 бит
Бит/(Пиксели*Кадры) : 0.040
Размер потока : 3,71 Гбайт (92%)
Библиотека кодирования : x265 3.5+10-82786fccc:[Windows][GCC 11.1.0][64 bit] 10bit
Настройки программы : cpuid=1111039 / frame-threads=2 / numa-pools=4 / wpp / no-pmode / pme / no-psnr / no-ssim / log-level=2 / input-csp=1 / input-res=1920x1080 / interlace=0 / total-frames=382153 / level-idc=41 / high-tier=1 / uhd-bd=0 / ref=3 / no-allow-non-conformance / no-repeat-headers / annexb / no-aud / no-eob / no-eos / no-hrd / info / hash=0 / no-temporal-layers / open-gop / min-keyint=25 / keyint=250 / gop-lookahead=0 / bframes=4 / b-adapt=2 / b-pyramid / bframe-bias=0 / rc-lookahead=20 / lookahead-slices=6 / scenecut=40 / hist-scenecut=0 / radl=0 / no-splice / no-intra-refresh / ctu=64 / min-cu-size=8 / no-rect / no-amp / max-tu-size=32 / tu-inter-depth=1 / tu-intra-depth=1 / limit-tu=0 / rdoq-level=0 / dynamic-rd=0.00 / no-ssim-rd / signhide / no-tskip / nr-intra=0 / nr-inter=0 / no-constrained-intra / strong-intra-smoothing / max-merge=3 / limit-refs=1 / no-limit-modes / me=1 / subme=2 / merange=57 / temporal-mvp / no-frame-dup / no-hme / weightp / no-weightb / no-analyze-src-pics / deblock=0:0 / sao / no-sao-non-deblock / rd=3 / selective-sao=4 / early-skip / rskip / no-fast-intra / no-tskip-fast / no-cu-lossless / b-intra / no-splitrd-skip / rdpenalty=0 / psy-rd=2.00 / psy-rdoq=0.00 / no-rd-refine / no-lossless / cbqpoffs=0 / crqpoffs=0 / rc=abr / bitrate=5000 / qcomp=0.60 / qpstep=4 / stats-write=0 / stats-read=2 / cplxblur=20.0 / qblur=0.5 / ipratio=1.40 / pbratio=1.30 / aq-mode=2 / aq-strength=1.00 / cutree / zone-count=0 / no-strict-cbr / qg-size=32 / no-rc-grain / qpmax=69 / qpmin=0 / no-const-vbv / sar=1 / overscan=0 / videoformat=5 / range=0 / colorprim=2 / transfer=2 / colormatrix=2 / chromaloc=0 / display-window=0 / cll=0,0 / min-luma=0 / max-luma=1023 / log2-max-poc-lsb=8 / vui-timing-info / vui-hrd-info / slices=1 / no-opt-qp-pps / no-opt-ref-list-length-pps / no-multi-pass-opt-rps / scenecut-bias=0.05 / hist-threshold=0.03 / no-opt-cu-delta-qp / no-aq-motion / no-hdr10 / no-hdr10-opt / no-dhdr10-opt / no-idr-recovery-sei / analysis-reuse-level=0 / analysis-save-reuse-level=0 / analysis-load-reuse-level=0 / scale-factor=0 / refine-intra=0 / refine-inter=0 / refine-mv=1 / refine-ctu-distortion=0 / no-limit-sao / ctu-info=0 / no-lowpass-dct / refine-analysis-type=0 / copy-pic=1 / max-ausize-factor=1.0 / no-dynamic-refine / no-single-sei / no-hevc-aq / no-svt / no-field / qp-adaptation-range=1.00 / scenecut-aware-qp=0conformance-window-offsets / right=0 / bottom=0 / decoder-max-rate=0 / no-vbv-live-multi-pass
Default : Да
Forced : Нет

Аудио
Идентификатор : 2
Формат : AC-3
Формат/Информация : Audio Coding 3
Коммерческое название : Dolby Digital
Идентификатор кодека : A_AC3
Продолжительность : 1 ч. 46 м.
Вид битрейта : Постоянный
Битрейт : 448 Кбит/сек
Каналы : 6 каналов
Channel layout : L R C LFE Ls Rs
Частота : 48,0 КГц
Частота кадров : 31,250 кадров/сек (1536 SPF)
Метод сжатия : С потерями
Размер потока : 340 Мбайт (8%)
Заголовок : Дубляж
Язык : Russian
Service kind : Complete Main
Default : Да
Forced : Нет

Текст #1
Идентификатор : 3
Формат : UTF-8
Идентификатор кодека : S_TEXT/UTF8
Идентификатор кодека/Информация : UTF-8 Plain Text
Продолжительность : 1 ч. 42 м.
Битрейт : 51 бит/сек
Count of elements : 888
Размер потока : 38,7 Кбайт (0%)
Язык : Russian
Default : Нет
Forced : Нет

Меню
00:00:00.000 : en:00:00:00.000
00:05:36.002 : en:00:05:36.002
00:08:29.008 : en:00:08:29.008
00:13:23.135 : en:00:13:23.135
00:15:02.067 : en:00:15:02.067
00:19:46.018 : en:00:19:46.018
00:22:47.866 : en:00:22:47.866
00:32:42.126 : en:00:32:42.126
00:37:58.776 : en:00:37:58.776
00:40:56.454 : en:00:40:56.454
00:44:34.171 : en:00:44:34.171
00:51:14.696 : en:00:51:14.696
00:54:12.415 : en:00:54:12.415
00:59:09.045 : en:00:59:09.045
01:01:39.195 : en:01:01:39.195
01:02:48.431 : en:01:02:48.431
01:05:13.409 : en:01:05:13.409
01:07:36.052 : en:01:07:36.052
01:09:58.194 : en:01:09:58.194
01:13:08.717 : en:01:13:08.717
01:18:10.018 : en:01:18:10.018
01:21:04.526 : en:01:21:04.526
01:27:25.907 : en:01:27:25.907
01:33:13.087 : en:01:33:13.087
01:35:07.535 : en:01:35:07.535
01:38:13.053 : en:01:38:13.053
01:42:08.122 : en:01:42:08.122
скриншот  скриншот  скриншот  скриншот  


© Оформление by DD2D3


Gremlins 2 The New Batch
«Cute. Dangerous. Clever. Mischievous. They're back!»


Год выпуска: 1990
Страна: США
Жанр: ужасы, фэнтези, комедия

Продолжительность: 01:46:26
Перевод: Дублированный | Варус-видео
Субтитры: нет |

Режиссер: Джо Данте
В ролях: Зак Галлиган, Фиби Кэйтс, Джон Гловер, Роберт Проски, Роберт Пикардо, Кристофер Ли, Хэвиланд Моррис, Дик Миллер, Джеки Джозеф, Гедде Ватанабе

Описание:
События происходят в Нью-Йорке. Новая партия вреднющих зеленых жадин вырвалась на свободу.

Мировая премьера: 15 июня 1990


Качество: BDRip 1080p Rip by DD2D3
Формат: MKV
Видео: V_MPEGH/ISO/HEVC; 1920x1080 (16:9); 4999 Kbps; 59,940 fps; 0,040 bpp
Аудио: русский; AC3; 448 Kbps; CBR; 6 ch ||
Навигация по главам: есть



Общее
Уникальный идентификатор : 197441811924283762330805162808099299461 (0x9489E8E7BAA4B9F28E079D0665456085)
Полное имя : D:\Gremlins Dilogy (1984-1990) BDRip - HEVC 1080p 10 bit 60 FPS\Gremlins 2 The New Batch (1990) BDRip - HEVC 1080p 10 bit 60 FPS.mkv
Формат : Matroska
Версия формата : Version 4
Размер файла : 4,05 Гбайт
Продолжительность : 1 ч. 46 м.
Общий поток : 5 454 Кбит/сек
Название фильма : Rip by from DD2D3
Дата кодирования : UTC 2021-09-15 11:26:31
Программа кодирования : mkvmerge v10.0.0 ('To Drown In You') 32bit
Библиотека кодирования : libebml v1.3.4 + libmatroska v1.4.5
Attachments : poster

Видео
Идентификатор : 1
Формат : HEVC
Формат/Информация : High Efficiency Video Coding
Профиль формата : Main 10@L4.1@Main
Идентификатор кодека : V_MPEGH/ISO/HEVC
Продолжительность : 1 ч. 46 м.
Битрейт : 5 000 Кбит/сек
Ширина : 1 920 пикселей
Высота : 1 080 пикселей
Соотношение сторон : 16:9
Режим частоты кадров : Постоянный
Частота кадров : 59,940 (60000/1001) кадров/сек
Цветовое пространство : YUV
Субдискретизация насыщенности : 4:2:0
Битовая глубина : 10 бит
Бит/(Пиксели*Кадры) : 0.040
Размер потока : 3,72 Гбайт (92%)
Библиотека кодирования : x265 3.5+10-82786fccc:[Windows][GCC 11.1.0][64 bit] 10bit
Настройки программы : cpuid=1111039 / frame-threads=2 / numa-pools=4 / wpp / no-pmode / pme / no-psnr / no-ssim / log-level=2 / input-csp=1 / input-res=1920x1080 / interlace=0 / total-frames=382798 / level-idc=41 / high-tier=1 / uhd-bd=0 / ref=3 / no-allow-non-conformance / no-repeat-headers / annexb / no-aud / no-eob / no-eos / no-hrd / info / hash=0 / no-temporal-layers / open-gop / min-keyint=25 / keyint=250 / gop-lookahead=0 / bframes=4 / b-adapt=2 / b-pyramid / bframe-bias=0 / rc-lookahead=20 / lookahead-slices=6 / scenecut=40 / hist-scenecut=0 / radl=0 / no-splice / no-intra-refresh / ctu=64 / min-cu-size=8 / no-rect / no-amp / max-tu-size=32 / tu-inter-depth=1 / tu-intra-depth=1 / limit-tu=0 / rdoq-level=0 / dynamic-rd=0.00 / no-ssim-rd / signhide / no-tskip / nr-intra=0 / nr-inter=0 / no-constrained-intra / strong-intra-smoothing / max-merge=3 / limit-refs=1 / no-limit-modes / me=1 / subme=2 / merange=57 / temporal-mvp / no-frame-dup / no-hme / weightp / no-weightb / no-analyze-src-pics / deblock=0:0 / sao / no-sao-non-deblock / rd=3 / selective-sao=4 / early-skip / rskip / no-fast-intra / no-tskip-fast / no-cu-lossless / b-intra / no-splitrd-skip / rdpenalty=0 / psy-rd=2.00 / psy-rdoq=0.00 / no-rd-refine / no-lossless / cbqpoffs=0 / crqpoffs=0 / rc=abr / bitrate=5000 / qcomp=0.60 / qpstep=4 / stats-write=0 / stats-read=2 / cplxblur=20.0 / qblur=0.5 / ipratio=1.40 / pbratio=1.30 / aq-mode=2 / aq-strength=1.00 / cutree / zone-count=0 / no-strict-cbr / qg-size=32 / no-rc-grain / qpmax=69 / qpmin=0 / no-const-vbv / sar=1 / overscan=0 / videoformat=5 / range=0 / colorprim=2 / transfer=2 / colormatrix=2 / chromaloc=0 / display-window=0 / cll=0,0 / min-luma=0 / max-luma=1023 / log2-max-poc-lsb=8 / vui-timing-info / vui-hrd-info / slices=1 / no-opt-qp-pps / no-opt-ref-list-length-pps / no-multi-pass-opt-rps / scenecut-bias=0.05 / hist-threshold=0.03 / no-opt-cu-delta-qp / no-aq-motion / no-hdr10 / no-hdr10-opt / no-dhdr10-opt / no-idr-recovery-sei / analysis-reuse-level=0 / analysis-save-reuse-level=0 / analysis-load-reuse-level=0 / scale-factor=0 / refine-intra=0 / refine-inter=0 / refine-mv=1 / refine-ctu-distortion=0 / no-limit-sao / ctu-info=0 / no-lowpass-dct / refine-analysis-type=0 / copy-pic=1 / max-ausize-factor=1.0 / no-dynamic-refine / no-single-sei / no-hevc-aq / no-svt / no-field / qp-adaptation-range=1.00 / scenecut-aware-qp=0conformance-window-offsets / right=0 / bottom=0 / decoder-max-rate=0 / no-vbv-live-multi-pass
Default : Да
Forced : Нет

Аудио
Идентификатор : 2
Формат : AC-3
Формат/Информация : Audio Coding 3
Коммерческое название : Dolby Digital
Идентификатор кодека : A_AC3
Продолжительность : 1 ч. 46 м.
Вид битрейта : Постоянный
Битрейт : 448 Кбит/сек
Каналы : 6 каналов
Channel layout : L R C LFE Ls Rs
Частота : 48,0 КГц
Частота кадров : 31,250 кадров/сек (1536 SPF)
Метод сжатия : С потерями
Задержка видео : 2 с. 0 мс.
Размер потока : 341 Мбайт (8%)
Заголовок : Дубляж Варус-видео
Язык : Russian
Service kind : Complete Main
Default : Да
Forced : Нет

Меню
00:00:00.000 : en:00:00:00.000
00:05:00.000 : en:00:05:00.000
00:10:00.000 : en:00:10:00.000
00:15:00.000 : en:00:15:00.000
00:20:00.000 : en:00:20:00.000
00:25:00.000 : en:00:25:00.000
00:30:00.000 : en:00:30:00.000
00:35:00.000 : en:00:35:00.000
00:40:00.000 : en:00:40:00.000
00:45:00.000 : en:00:45:00.000
00:50:00.000 : en:00:50:00.000
00:55:00.000 : en:00:55:00.000
01:00:00.000 : en:01:00:00.000
01:05:00.000 : en:01:05:00.000
01:10:00.000 : en:01:10:00.000
01:15:00.000 : en:01:15:00.000
01:20:00.000 : en:01:20:00.000
01:25:00.000 : en:01:25:00.000
01:30:00.000 : en:01:30:00.000
01:35:00.000 : en:01:35:00.000
01:40:00.000 : en:01:40:00.000
01:45:00.000 : en:01:45:00.000
скриншот  скриншот  скриншот  скриншот  


© Оформление by DD2D3
pb.wtf



Скачать Гремлины: Дилогия через торрент http://images.vfl.ru/ii/1631706201/f15cb644/35873183.jpg Скачать, смотреть онлайн Гремлины: Дилогия бесплантно в хорошем качестве Описание: Очаровательный пушистый зверек Магвай способен растрогать даже камень. Вдобавок, у него – абсолютный слух. Только будьте ... 10 10 4
Info! Золотая раздача, скачанное не засчитывается.
Торрент: Зарегистрирован [2021-09-15 12:28] · скачан: 31 раз
Статус: √ проверено
Размер: 8.1 GB
Как cкачать? Как скачать Гремлины: Дилогия через торрент | UTorrent

28-11-2019 20:33  

Отключить всю рекламу на сайте

    Дорогой пользователь! Огромная просьба, поблагодарите релизера, оцените раздачу и оставьте свои комментарий, если Вы скачали Гремлины: Дилогия через торрент бесплатно!
    Комментировать посты могут только пользователи прошедшие не сложную регистрацию
    Показать сообщения:    

    Гремлины: Дилогия через торрент
    Скачать бесплатно Гремлины: Дилогия
    Гремлины: Дилогия скачать торрент
    Гремлины: Дилогия смотреть онлайн
    Cкачать фильм Гремлины: Дилогия бесплатно
    Гремлины: Дилогия скачать торрент в хорошем качестве
    Гремлины: Дилогия смотреть онлайн бесплатно в хорошем качестве


    Вы не можете начинать темы
    Вы не можете отвечать на сообщения
    Вы не можете редактировать свои сообщения
    Вы не можете удалять свои сообщения
    Вы не можете голосовать в опросах
    Вы не можете прикреплять файлы к сообщениям
    Вы можете скачивать файлы