Присоединяйтесь к нам в Telegram!, здесь всегда актуальный адрес сайта, оперативная поддержка и многое другое!!

>

5.9

iTunes

7.4

iTunes

9.4

1 сезон

1

7.4

2 сезон

7.2

iTunes

7.3

1 сезон

13

6.1

iTunes

8.3

Пиратка

30

ULTIMATE

pack

9.9

Лицензия

ВАЖНО

ИГРА 18+

pack

7.3

RePack

MK11

7.7

RePack

jed

7.8

RePack

fifa19

8.5

RePack

RDR2

RePack

NEED FOR SPEED™ PAYBACK

5 сезон

9 сезон

Бесстыжие 9 сезон

Все сериалы

все сериалы на PB.wtf

RePack

FAR CRY 5

Anonymous, доброй ночи, мы катастрофически не успеваем собрать деньги на оплату серверов, помогите нам пожалуйста 5,10,15р., для нас важна любая помощь . В качестве благодарности мы отключим Вам всю рекламу на сайте (укажите свой ник в строку Ваше имя)!

×
  
Magnet ссылка

Ночные тетради / Nightbooks (Дэвид Яровески) [2021, Фэнтези, семейный, приключения, WEB-DLRip-AVC] DUB [Netflix] от MediaBit pb.wtf

Ночные тетради через торрент pb.wtf

Раздают: 4 [ 0 KB/s ]
Размер: 2.2 GB | Добавлен: 2 мес. 20 д. назад | Торрент скачан:106 раз
Смотреть онлайн Ночные тетради | Скачать    Ребята, помогите собрать деньги на оплату серверов!!!

15-09-2021 18:39 Ночные тетради Скачать торрент  


Ночные тетради / Nightbooks
Информация о фильме:
Название: Ночные тетради
Оригинальное название: Nightbooks
Год выхода: 2021
Жанр: Фэнтези, семейный, приключения
Режиссер: Дэвид Яровески
В ролях: Кристен Риттер, Уинслоу Фегли, Лидия Джюэтт, Джесс Браун, Хийла Айнне, Майли Хейк, Люкстон Хэндспайкер, Лиам Кувион, Тейлор Белль Путермэн

Описание: Алекс попадает в плен к злой ведьме, которая жаждет его съесть. Чтобы избежать верной смерти, мальчик предлагает ведьме хитрую сделку: каждую ночь он будет рассказывать ведьме одну страшную историю. Большой любитель страшилок, Алекс знает массу ужасных сказок, которые он записывает в свои специальные ночные тетради. Встретив в логове ведьмы другую пленницу, Ясмин, Алекс объединяется с ней, чтобы вместе найти выход из волшебного дома-лабиринта.



Страна: США
Студия: Catchlight Studios, Ghost House Pictures, MXN Entertainment, Netflix
Продолжительность: 01:43:11
Перевод: Дублированный - iTunes



Информация о файле:
Кодек: AVC
Формат: MKV
Качество: WEB-DLRip-AVC
Видео: MPEG-4 AVC, 1024x426, 23.976 fps, 2151 kbps
Аудио RU: AC3, 6 ch, 48 kHz, 448 kbps
Аудио EN: AC3, 6 ch, 48 kHz, 448 kbps
Субтитры: Русские (Forced, full), украинские (Full), английские

x264 info: frame I:1812 Avg QP: 9.56 size: 92084
x264 info: frame P:30213 Avg QP:13.87 size: 24957
x264 info: frame B:116417 Avg QP:17.32 size: 6379
General
Unique ID : 42525820885393463899055259482041650781 (0x1FFE2CD8F1541A69AE64FDC86E1C8E5D)
Complete name : D:\uTorrent\Рипы wolf1245\Nightbooks.2021.DUB.Netflix.WEB-DLRip-AVC.[-=wolf1245.MediaBit=-].mkv
Format : Matroska
Format version : Version 4
File size : 2.20 GiB
Duration : 1 h 43 min
Overall bit rate : 3 048 kb/s
Movie name : Nightbooks.2021.DUB.Netflix.WEB-DLRip-AVC.[-=wolf1245.MediaBit=-]
Encoded date : UTC 2021-09-15 18:28:02
Writing application : mkvmerge v61.0.0 ('So') 64-bit
Writing library : libebml v1.4.2 + libmatroska v1.6.4

Video
ID : 1
Format : AVC
Format/Info : Advanced Video Codec
Format profile : High@L4.1
Format settings : CABAC / 12 Ref Frames
Format settings, CABAC : Yes
Format settings, Reference frames : 12 frames
Codec ID : V_MPEG4/ISO/AVC
Duration : 1 h 43 min
Bit rate : 2 151 kb/s
Width : 1 024 pixels
Height : 426 pixels
Display aspect ratio : 2.40:1
Frame rate mode : Constant
Frame rate : 23.976 (24000/1001) FPS
Color space : YUV
Chroma subsampling : 4:2:0
Bit depth : 8 bits
Scan type : Progressive
Bits/(Pixel*Frame) : 0.206
Stream size : 1.55 GiB (71%)
Title : -=[wolf1245.MediaBit]=-
Writing library : x264 core 161 r3020 d198931
Encoding settings : cabac=1 / ref=12 / deblock=1:-3:-2 / analyse=0x3:0x133 / me=umh / subme=10 / psy=1 / psy_rd=1.00:0.15 / mixed_ref=1 / me_range=32 / chroma_me=1 / trellis=2 / 8x8dct=1 / cqm=0 / deadzone=21,11 / fast_pskip=1 / chroma_qp_offset=-3 / threads=10 / lookahead_threads=2 / sliced_threads=0 / nr=0 / decimate=1 / interlaced=0 / bluray_compat=0 / constrained_intra=0 / bframes=10 / b_pyramid=2 / b_adapt=2 / b_bias=0 / direct=3 / weightb=1 / open_gop=0 / weightp=2 / keyint=240 / keyint_min=24 / scenecut=40 / intra_refresh=0 / rc_lookahead=60 / rc=2pass / mbtree=1 / bitrate=2151 / ratetol=1.0 / qcomp=0.60 / qpmin=0 / qpmax=69 / qpstep=4 / cplxblur=20.0 / qblur=0.5 / vbv_maxrate=50000 / vbv_bufsize=62500 / nal_hrd=none / filler=0 / ip_ratio=1.40 / aq=3:0.80
Language : English
Default : Yes
Forced : No

Audio #1
ID : 2
Format : AC-3
Format/Info : Audio Coding 3
Commercial name : Dolby Digital
Codec ID : A_AC3
Duration : 1 h 43 min
Bit rate mode : Constant
Bit rate : 448 kb/s
Channel(s) : 6 channels
Channel layout : L R C LFE Ls Rs
Sampling rate : 48.0 kHz
Frame rate : 31.250 FPS (1536 SPF)
Compression mode : Lossy
Stream size : 331 MiB (15%)
Title : DUB | Netflix
Language : Russian
Service kind : Complete Main
Default : Yes
Forced : No

Audio #2
ID : 3
Format : AC-3
Format/Info : Audio Coding 3
Commercial name : Dolby Digital
Codec ID : A_AC3
Duration : 1 h 43 min
Bit rate mode : Constant
Bit rate : 448 kb/s
Channel(s) : 6 channels
Channel layout : L R C LFE Ls Rs
Sampling rate : 48.0 kHz
Frame rate : 31.250 FPS (1536 SPF)
Compression mode : Lossy
Stream size : 331 MiB (15%)
Title : Original
Language : English
Service kind : Complete Main
Default : No
Forced : No

Text #1
ID : 4
Format : UTF-8
Codec ID : S_TEXT/UTF8
Codec ID/Info : UTF-8 Plain Text
Duration : 1 h 40 min
Bit rate : 1 b/s
Count of elements : 30
Stream size : 971 Bytes (0%)
Language : Russian
Default : Yes
Forced : No

Text #2
ID : 5
Format : UTF-8
Codec ID : S_TEXT/UTF8
Codec ID/Info : UTF-8 Plain Text
Duration : 1 h 40 min
Bit rate : 56 b/s
Count of elements : 1064
Stream size : 41.8 KiB (0%)
Language : Russian
Default : No
Forced : No

Text #3
ID : 6
Format : UTF-8
Codec ID : S_TEXT/UTF8
Codec ID/Info : UTF-8 Plain Text
Duration : 1 h 40 min
Bit rate : 59 b/s
Count of elements : 986
Stream size : 43.3 KiB (0%)
Language : Ukrainian
Default : No
Forced : No

Text #4
ID : 7
Format : UTF-8
Codec ID : S_TEXT/UTF8
Codec ID/Info : UTF-8 Plain Text
Duration : 1 h 35 min
Bit rate : 59 b/s
Count of elements : 1514
Stream size : 41.5 KiB (0%)
Language : English
Default : No
Forced : No
Релиз от: &

Автор релиза:
pb.wtf



Скачать Ночные тетради через торрент https://i115.fastpic.org/big/2021/0915/98/175831ea368a4972f874e148253ba998.jpg Скачать, смотреть онлайн Ночные тетради бесплантно в хорошем качестве Описание: Алекс попадает в плен к злой ведьме, которая жаждет его съесть. Чтобы избежать верной смерти, мальчик предлагает ведьме хитрую ... 10 10 5
Торрент: Зарегистрирован [2021-09-15 18:39] · скачан: 106 раз
Статус: √ проверено
Размер: 2.2 GB
Как cкачать? Как скачать Ночные тетради через торрент | UTorrent

28-11-2019 20:33  

Отключить всю рекламу на сайте

    Дорогой пользователь! Огромная просьба, поблагодарите релизера, оцените раздачу и оставьте свои комментарий, если Вы скачали Ночные тетради через торрент бесплатно!
    Комментировать посты могут только пользователи прошедшие не сложную регистрацию
    Показать сообщения:    

    Ночные тетради через торрент
    Скачать бесплатно Ночные тетради
    Ночные тетради скачать торрент
    Ночные тетради смотреть онлайн
    Cкачать фильм Ночные тетради бесплатно
    Ночные тетради скачать торрент в хорошем качестве
    Ночные тетради смотреть онлайн бесплатно в хорошем качестве


    Вы не можете начинать темы
    Вы не можете отвечать на сообщения
    Вы не можете редактировать свои сообщения
    Вы не можете удалять свои сообщения
    Вы не можете голосовать в опросах
    Вы не можете прикреплять файлы к сообщениям
    Вы можете скачивать файлы